当前位置: 首页 >> 国产电影 >> 终极代码[国语配音/中文字幕].Ultimate.Code.2021.1080p.WEB-DL.H264.AAC 1.27GB >> 正文

终极代码[国语配音/中文字幕].Ultimate.Code.2021.1080p.WEB-DL.H264.AAC 1.27GB

2021年10月14日 16:00:37     电影发布:来源于网络     电影分类:国产电影     评论(0)    

终极代码[国语配音/中文字幕].Ultimate.Code.2021.1080p.WEB DL.H264.AAC 1.27GB 科幻片 犯罪片 动作片 国产电影  第1张

◎译 名 终极代码 / Ultimate Code

◎年 代 2021

◎产 地 中国大陆

◎类 别 动作 / 科幻 / 犯罪

◎语 言 汉语普通话

◎上映日期 2021-07-16(中国大陆)

◎IMDb链接 https://www.imdb.com/title//

◎豆瓣链接 https://movie.douban.com/subject/27191370/

◎片 长 92分钟

◎导 演 吴治廷 Zhiting Wu (id:1401384)

◎编 剧 沈慕白 Mubai Shen (id:1393233)

◎演 员 吴治廷 Zhiting Wu (id:1401384)

孟璐 Lu Meng (id:1378516)

大卫·贝利 David Belle (id:1049467)

狼森 Philippe Joly (id:1347734)

管乐 Le Guan (id:1333848)

张家荣 Jiarong Zhang (id:1396263)

林伟 Vincent Lam (id:1313802)

申军谊 Junyi Shen (id:1036092)

何杰 (id:1429926)

海伦 (id:1428622)

雷俊 Jun Lei (id:1388052)

王筱叶 (id:1428607)

吴治廷 Zhiting Wu (id:1401384)

吴桂波 (id:1428608)

苏武州 (id:1428609)

王俊忠 Junzhong Wang (id:1428610)

李奕廷 (id:1428611)

熊春生 (id:1428612)

杨福鼎 (id:1428613)

林敦豪 (id:1428615)

苏坤泉 (id:1428616)

吴巧凤 (id:1428617)

申军谊 Junyi Shen (id:1036092)

杨端艳 (id:1458917)

王少铃 (id:1458918)

田奎 (id:1458919)

王灿林 (id:1458920)

林敦康 (id:1458921)

马介涌 (id:1458922)

邓廷妙 (id:1458923)

余畅 (id:1458925)

苏晓旋 (id:1458926)

周丽 (id:1458927)

杨伊雯 (id:1458928)

昔米 (id:1458943)

谭炜星 (id:1458944)

张学文 (id:1428618)

张立志 (id:1428619)

赵怀震 (id:1458931)

王凯 (id:1458932)

杨波 (id:1458933)

张治岩 (id:1458942)

杨丰帆 (id:1428620)

刘真猛 (id:1458938)

逯苹路 (id:1458934)

梁敏 (id:1458935)

谭芬 (id:1458936)

邵晓丽 (id:1458937)

张培 (id:1458924)

牟闪闪 (id:1458930)

韦高峰 (id:1428621)

唐其坚 (id:1458939)

郭计划 (id:1458941)

杨福鼎 (id:1428613)

张家荣 Jiarong Zhang (id:1396263)

正一阳 (id:1458929)

周冠兆 (id:1458940)

◎标 签 动作 / 中国大陆 / 科幻 / 2021 / 冒险 / 悬疑 / 剧情 / 电影

◎简 介

公元2025年,Mr.M以造福人类的名义对外界发布芯片计划,发布会遭到逃出组织的杀手Enoch破坏,不得不调动囚禁于死亡谷的萧宇来执行任务。不服组织控制、身受重伤的萧宇,被Mr.M所控制的x公司抓回,Mr.M用萧宇的妻子、女儿来要挟他,找回三块源代码。

被组织控制的国际顶尖杀手“萧宇”,虽心怀正义却不得不为了女儿和妻子追回源代码芯片,在内心的矛盾挣扎中踏上消灭正义的杀手之路。而人类的命运又该何去何从......

  1. ##### MediaInfo ######

  2. General

  3. Complete name : 终极代码[email protected]

  4. Format : MPEG-4

  5. Format profile : Base Media

  6. Codec ID : isom (isom/iso2/avc1/mp41)

  7. File size : 1.27 GiB

  8. Duration : 1 h 29 min

  9. Overall bit rate : 2 019 kb/s

  10. Writing application : Lavf58.29.100


  11. Video

  12. ID : 1

  13. Format : AVC

  14. Format/Info : Advanced Video Codec

  15. Format profile : [email protected]

  16. Format settings : CABAC / 3 Ref Frames

  17. Format settings, CABAC : Yes

  18. Format settings, Reference frames : 3 frames

  19. Codec ID : avc1

  20. Codec ID/Info : Advanced Video Coding

  21. Duration : 1 h 29 min

  22. Bit rate : 1 823 kb/s

  23. Width : 1 920 pixels

  24. Height : 800 pixels

  25. Display aspect ratio : 2.40:1

  26. Frame rate mode : Constant

  27. Frame rate : 24.000 FPS

  28. Color space : YUV

  29. Chroma subsampling : 4:2:0

  30. Bit depth : 8 bits

  31. Scan type : Progressive

  32. Bits/(Pixel*Frame) : 0.049

  33. Stream size : 1.14 GiB (90%)

  34. Writing library : qiyi.com vtc-test

  35. Color range : Limited

  36. Color primaries : BT.709

  37. Transfer characteristics : BT.709

  38. Matrix coefficients : BT.709

  39. Codec configuration box : avcC


  40. Audio

  41. ID : 2

  42. Format : AAC LC

  43. Format/Info : Advanced Audio Codec Low Complexity

  44. Codec ID : mp4a-40-2

  45. Duration : 1 h 29 min

  46. Bit rate mode : Constant

  47. Bit rate : 192 kb/s

  48. Channel(s) : 2 channels

  49. Channel layout : L R

  50. Sampling rate : 44.1 kHz

  51. Frame rate : 43.066 FPS (1024 SPF)

  52. Compression mode : Lossy

  53. Stream size : 122 MiB (9%)

  54. Default : Yes

  55. Alternate group : 1




复制代码




文件下载


除非特别注明,本文『终极代码[国语配音/中文字幕].Ultimate.Code.2021.1080p.WEB-DL.H264.AAC 1.27GB』来源于互联网机器人自动抓取,非本站原创。 浮游电影网不对本文拥有版权,如有侵犯,请联系邮箱:fuyouu#yandex.com[#换成@]投诉。我们会在15个工作日内删除。 但烦请转载时请标明出处:“本文转载于『浮游电影网』,原文地址:https://www.fuyouu.com/14948.html

评论吧骚年!

发表你的见解   

昵称*

E-mail*(建议输入,以便收到博主回复的提示邮件)

验证码*

您可以使用eMule或eMule Mod(Windows)、aMule(Win、Linux、Mac)等软件下载eD2k链接。。
eMule收藏集(.emulecollection)文件是您选中的所有链接的列表文件。eMule可以直接下载它们。
按住SHIFT键选择可以选中多个选择框。
可用文件名和大小选择器来选择文件。
文件名选择器帮您根据文件名称或后缀来选择文件。不分大小写。
符号使用:
和:空格( )、+
不包含:-
或:|
转义:一对英文引号("");
匹配开头:^
匹配结尾:$
例如:
选中所有名称中包含有“eMule”或“0.49c”字眼,但不包含有“exe”字眼的:emule|0.49c -exe
选中所有名称的开头是“eMule”,结尾是“0.49c”的:^emule 0.49c$
选中所有名称中带有“eMule 0.49c”的(必须是“eMule 0.49c”,中间没有别的字符,不能是“eMule fake 0.49c”),需要转义:"emule 0.49c"
大小选择器帮您根据文件大小选择文件。