当前位置: 首页 >> 国产电影 >> 我不是龙套[国语配音/中文字幕].I.Am.Not.An.Extra.2021.1080p.WEB-DL.H264.AAC 1.46GB >> 正文

我不是龙套[国语配音/中文字幕].I.Am.Not.An.Extra.2021.1080p.WEB-DL.H264.AAC 1.46GB

2021年10月14日 15:59:25     电影发布:来源于网络     电影分类:国产电影     评论(0)    

我不是龙套[国语配音/中文字幕].I.Am.Not.An.Extra.2021.1080p.WEB DL.H264.AAC 1.46GB 动作片 喜剧片 国产电影  第1张

◎译 名 我不是龙套 / 勇者无惧之奋斗 / I Am Not An Extra

◎年 代 2021

◎产 地 中国大陆

◎类 别 喜剧 / 动作

◎语 言 汉语普通话

◎上映日期 2021-09-05(中国大陆)

◎IMDb链接 https://www.imdb.com/title//

◎豆瓣链接 https://movie.douban.com/subject/35295585/

◎片 长 83分钟

◎导 演 杨健武 Kin Mo Yeung (id:1362268)

◎演 员 钱小豪 Siu-hou Chin (id:1005415)

胡然 Michelle Hu (id:1328398)

张明明 Mingming Zhang (id:1330941)

高智洋 Zhiyang Gao (id:1419712)

程琢 Zhuo Cheng (id:1414927)

◎标 签 动作 / 钱小豪 / 剧情 / 大陆 / 2021 / 中国 / 网大 / 电影

◎简 介

学成出师的王兆杰(钱小豪 饰)、吴立(程琢 饰演)及一众师弟,踏入影视圈做武术替身演员。因兆杰功夫过硬且十分敬业,得到女星陈诗琦(胡然饰)青睐担任其替身演员,却得罪同组富二代男演员葛政(张明明 饰)。葛政对王兆杰各种使坏,甚至让师弟重伤入院。心有所愧的兆杰人生陷入黑暗,燃烧的武术梦也逐渐暗淡……

  1. ##### MediaInfo ######

  2. General

  3. Complete name : 我不是龙套[email protected]p4

  4. Format : MPEG-4

  5. Format profile : Base Media

  6. Codec ID : isom (isom/iso2/avc1/mp41)

  7. File size : 1.46 GiB

  8. Duration : 1 h 21 min

  9. Overall bit rate : 2 570 kb/s

  10. Writing application : Lavf58.29.100


  11. Video

  12. ID : 1

  13. Format : AVC

  14. Format/Info : Advanced Video Codec

  15. Format profile : [email protected]

  16. Format settings : CABAC / 4 Ref Frames

  17. Format settings, CABAC : Yes

  18. Format settings, Reference frames : 4 frames

  19. Codec ID : avc1

  20. Codec ID/Info : Advanced Video Coding

  21. Duration : 1 h 21 min

  22. Bit rate : 2 471 kb/s

  23. Width : 1 920 pixels

  24. Height : 818 pixels

  25. Display aspect ratio : 2.35:1

  26. Frame rate mode : Variable

  27. Frame rate : 25.000 FPS

  28. Minimum frame rate : 24.993 FPS

  29. Maximum frame rate : 25.007 FPS

  30. Color space : YUV

  31. Chroma subsampling : 4:2:0

  32. Bit depth : 8 bits

  33. Scan type : Progressive

  34. Bits/(Pixel*Frame) : 0.063

  35. Stream size : 1.40 GiB (96%)

  36. Writing library : ptw-1.0.134 rcm-adapt vs-93 vwk

  37. Color range : Limited

  38. Color primaries : BT.709

  39. Transfer characteristics : BT.709

  40. Matrix coefficients : BT.709

  41. Codec configuration box : avcC


  42. Audio

  43. ID : 2

  44. Format : AAC LC

  45. Format/Info : Advanced Audio Codec Low Complexity

  46. Codec ID : mp4a-40-2

  47. Duration : 1 h 21 min

  48. Bit rate mode : Constant

  49. Bit rate : 93.4 kb/s

  50. Channel(s) : 2 channels

  51. Channel layout : L R

  52. Sampling rate : 48.0 kHz

  53. Frame rate : 46.875 FPS (1024 SPF)

  54. Compression mode : Lossy

  55. Stream size : 54.2 MiB (4%)

  56. Default : Yes

  57. Alternate group : 1




复制代码



文件下载


除非特别注明,本文『我不是龙套[国语配音/中文字幕].I.Am.Not.An.Extra.2021.1080p.WEB-DL.H264.AAC 1.46GB』来源于互联网机器人自动抓取,非本站原创。 浮游电影网不对本文拥有版权,如有侵犯,请联系邮箱:fuyouu#yandex.com[#换成@]投诉。我们会在15个工作日内删除。 但烦请转载时请标明出处:“本文转载于『浮游电影网』,原文地址:https://www.fuyouu.com/14947.html

评论吧骚年!

发表你的见解   

昵称*

E-mail*(建议输入,以便收到博主回复的提示邮件)

验证码*

您可以使用eMule或eMule Mod(Windows)、aMule(Win、Linux、Mac)等软件下载eD2k链接。。
eMule收藏集(.emulecollection)文件是您选中的所有链接的列表文件。eMule可以直接下载它们。
按住SHIFT键选择可以选中多个选择框。
可用文件名和大小选择器来选择文件。
文件名选择器帮您根据文件名称或后缀来选择文件。不分大小写。
符号使用:
和:空格( )、+
不包含:-
或:|
转义:一对英文引号("");
匹配开头:^
匹配结尾:$
例如:
选中所有名称中包含有“eMule”或“0.49c”字眼,但不包含有“exe”字眼的:emule|0.49c -exe
选中所有名称的开头是“eMule”,结尾是“0.49c”的:^emule 0.49c$
选中所有名称中带有“eMule 0.49c”的(必须是“eMule 0.49c”,中间没有别的字符,不能是“eMule fake 0.49c”),需要转义:"emule 0.49c"
大小选择器帮您根据文件大小选择文件。