当前位置: 首页 >> 国产电影 >> 斗破乱世情[国英多音轨/简繁字幕].Legend.of.Lv.Bu.2020.BluRay.1080p.DTS-HD.MA5.1.x265.10bit 6.04GB >> 正文

斗破乱世情[国英多音轨/简繁字幕].Legend.of.Lv.Bu.2020.BluRay.1080p.DTS-HD.MA5.1.x265.10bit 6.04GB

2021年10月14日 15:54:10     电影发布:来源于网络     电影分类:国产电影     评论(0)    

斗破乱世情[国英多音轨/简繁字幕].Legend.of.Lv.Bu.2020.BluRay.1080p.DTS HD.MA5.1.x265.10bit 6.04GB 古装片 奇幻片 爱情片 动作片 国产电影  第1张

◎译 名 斗破乱世情 / 吕布传 / God of War II / Legend of Lv Bu

◎年 代 2020

◎产 地 中国大陆

◎类 别 动作 / 爱情 / 奇幻 / 古装

◎语 言 汉语普通话

◎上映日期 2020-05-30(中国大陆网络)

◎IMDb链接 https://www.imdb.com/title/tt15090814/

◎豆瓣链接 https://movie.douban.com/subject/30481986/

◎片 长 98分钟

◎导 演 蔡聪 Cong Cai (id:1373148)

◎演 员 林柏叡 Charles (id:1387714)

吴大维 David Wu (id:1028801)

盛英豪 Yinghao Sheng (id:1403394)

刘露 Lu Liu (id:1416948)

◎标 签 电影 / 爱情 / 中国 / 战争 / 大陆 / 三国 / 吕布 / 感情

◎简 介

战乱时代,奸臣窦准当道,用毒蛊驯养药人。药人十九 在一次试药后身体异变逃走,机缘巧合下被少女蝉衣救下取名“一缕布”。二人渐生情愫,另一边窦准派人追拿十九,村民无辜被杀,蝉衣落崖,一缕布被抓并被篡改记忆......三年后,大难不死的蝉衣自荐刺杀窦准,与失去记忆并成为窦准义子的一缕布重逢。满腔恨意化为悲痛,一面是家国,一面是爱情,乱世中的他们又该何去何从......

  1. ##### MediaInfo ######

  2. General

  3. Unique ID : 68774196673539635161135563726112418344 (0x33BD6DB0B324E9E80136CF8DFB1FEA28)

  4. Complete name : [email protected]BBQDDQ.COM.mkv

  5. Format : Matroska

  6. Format version : Version 4

  7. File size : 6.04 GiB

  8. Duration : 1 h 40 min

  9. Overall bit rate mode : Variable

  10. Overall bit rate : 8 598 kb/s

  11. Encoded date : UTC 2021-10-13 01:39:27

  12. Writing application : mkvmerge v49.0.0 ('Sick Of Losing Soulmates') 64-bit

  13. Writing library : libebml v1.4.0 + libmatroska v1.6.1


  14. Video

  15. ID : 1

  16. Format : HEVC

  17. Format/Info : High Efficiency Video Coding

  18. Format profile : Main [email protected]@High

  19. Codec ID : V_MPEGH/ISO/HEVC

  20. Duration : 1 h 40 min

  21. Bit rate : 6 055 kb/s

  22. Width : 1 920 pixels

  23. Height : 802 pixels

  24. Display aspect ratio : 2.40:1

  25. Frame rate mode : Constant

  26. Frame rate : 24.000 FPS

  27. Color space : YUV

  28. Chroma subsampling : 4:2:0

  29. Bit depth : 10 bits

  30. Bits/(Pixel*Frame) : 0.164

  31. Stream size : 4.26 GiB (70%)

  32. Title : HEVC, [email protected]@High, 24 fps @ 6055 kbps

  33. Writing library : x265 3.4+14-gd419c7152:[Windows][GCC 10.2.0][64 bit] 10bit

  34. Encoding settings : cpuid=533541111039 / frame-threads=4 / numa-pools=16 / wpp / pmode / pme / no-psnr / no-ssim / log-level=2 / input-csp=1 / input-res=1920x802 / interlace=0 / total-frames=144884 / level-idc=51 / high-tier=1 / uhd-bd=0 / ref=5 / no-allow-non-conformance / no-repeat-headers / annexb / no-aud / no-hrd / info / hash=0 / no-temporal-layers / open-gop / min-keyint=24 / keyint=240 / gop-lookahead=0 / bframes=6 / b-adapt=2 / b-pyramid / bframe-bias=0 / rc-lookahead=40 / lookahead-slices=0 / NTMzNTQ=uuDQuD2mJt9fsCf / scenecut=40 / hist-scenecut=0 / radl=0 / no-splice / no-intra-refresh / ctu=32 / min-cu-size=8 / no-rect / no-amp / max-tu-size=32 / tu-inter-depth=3 / tu-intra-depth=3 / limit-tu=4 / rdoq-level=2 / dynamic-rd=0.00 / no-ssim-rd / signhide / no-tskip / nr-intra=0 / nr-inter=0 / no-constrained-intra / no-strong-intra-smoothing / max-merge=4 / limit-refs=1 / limit-modes / me=3 / subme=4 / merange=25 / temporal-mvp / no-frame-dup / no-hme / weightp / weightb / no-analyze-src-pics / deblock=-3:-3 / no-sao / no-sao-non-deblock / rd=6 / selective-sao=0 / no-early-skip / rskip / no-fast-intra / no-tskip-fast / no-cu-lossless / b-intra / no-splitrd-skip / rdpenalty=0 / psy-rd=2.00 / psy-rdoq=1.00 / no-rd-refine / no-lossless / cbqpoffs=0 / crqpoffs=0 / rc=crf / crf=17.0 / qcomp=0.65 / qpstep=4 / stats-write=0 / stats-read=0 / vbv-maxrate=80000 / vbv-bufsize=80000 / vbv-init=0.9 / crf-max=0.0 / crf-min=0.0 / ipratio=1.40 / pbratio=1.30 / aq-mode=2 / aq-strength=0.85 / cutree / zone-count=0 / no-strict-cbr / qg-size=32 / no-rc-grain / qpmax=69 / qpmin=0 / no-const-vbv / sar=1 / overscan=0 / videoformat=5 / range=0 / colorprim=1 / transfer=1 / colormatrix=1 / chromaloc=0 / display-window=0 / cll=0,0 / min-luma=0 / max-luma=1023 / log2-max-poc-lsb=8 / vui-timing-info / vui-hrd-info / slices=1 / no-opt-qp-pps / no-opt-ref-list-length-pps / no-multi-pass-opt-rps / scenecut-bias=0.05 / hist-threshold=0.03 / no-opt-cu-delta-qp / no-aq-motion / no-hdr10 / no-hdr10-opt / no-dhdr10-opt / no-idr-recovery-sei / analysis-reuse-level=0 / analysis-save-reuse-level=0 / analysis-load-reuse-level=0 / scale-factor=0 / refine-intra=0 / refine-inter=0 / refine-mv=1 / refine-ctu-distortion=0 / no-limit-sao / ctu-info=0 / no-lowpass-dct / refine-analysis-type=0 / copy-pic=1 / max-ausize-factor=1.0 / no-dynamic-refine / no-single-sei / no-hevc-aq / no-svt / no-field / qp-adaptation-range=1.00 / no-scenecut-aware-qpconformance-window-offsets / right=0 / bottom=0 / NTMzNTQ= / decoder-max-rate=0

  35. Language : English

  36. Default : Yes

  37. Forced : No

  38. Color range : Limited

  39. Color primaries : BT.709

  40. Transfer characteristics : BT.709

  41. Matrix coefficients : BT.709


  42. Audio

  43. ID : 2

  44. Format : DTS XLL

  45. Format/Info : Digital Theater Systems

  46. Commercial name : DTS-HD Master Audio

  47. Codec ID : A_DTS

  48. Duration : 1 h 40 min

  49. Bit rate mode : Variable

  50. Bit rate : 2 470 kb/s

  51. Channel(s) : 6 channels

  52. Channel layout : C L R Ls Rs LFE

  53. Sampling rate : 48.0 kHz

  54. Frame rate : 93.750 FPS (512 SPF)

  55. Bit depth : 16 bits

  56. Compression mode : Lossless

  57. Stream size : 1.74 GiB (29%)

  58. Title : Mandarin DTS-HD Master Audio 5.1 @ 2470 kbps

  59. Language : English

  60. Default : Yes

  61. Forced : No


  62. Text #1

  63. ID : 3

  64. Format : PGS

  65. Codec ID : S_HDMV/PGS

  66. Codec ID/Info : Picture based subtitle format used on BDs/HD-DVDs

  67. Duration : 1 h 37 min

  68. Bit rate : 27.6 kb/s

  69. Count of elements : 2029

  70. Stream size : 19.2 MiB (0%)

  71. Title : Eng/SUP

  72. Language : English

  73. Default : No

  74. Forced : No


  75. Text #2

  76. ID : 4

  77. Format : PGS

  78. Codec ID : S_HDMV/PGS

  79. Codec ID/Info : Picture based subtitle format used on BDs/HD-DVDs

  80. Duration : 1 h 37 min

  81. Bit rate : 21.1 kb/s

  82. Count of elements : 2033

  83. Stream size : 14.7 MiB (0%)

  84. Title : Chs/SUP 原盘简体

  85. Language : Chinese

  86. Default : Yes

  87. Forced : No


  88. Text #3

  89. ID : 5

  90. Format : PGS

  91. Codec ID : S_HDMV/PGS

  92. Codec ID/Info : Picture based subtitle format used on BDs/HD-DVDs

  93. Duration : 1 h 37 min

  94. Bit rate : 22.8 kb/s

  95. Count of elements : 2033

  96. Stream size : 15.9 MiB (0%)

  97. Title : Cht/SUP 原盘繁体

  98. Language : Chinese

  99. Default : No

  100. Forced : No


  101. Menu

  102. 00:00:00.000 : en:第 01 章

  103. 00:08:49.917 : en:第 02 章

  104. 00:20:35.750 : en:第 03 章

  105. 00:30:57.708 : en:第 04 章

  106. 00:38:54.083 : en:第 05 章

  107. 00:47:42.042 : en:第 06 章

  108. 00:59:29.333 : en:第 07 章

  109. 01:11:53.000 : en:第 08 章

  110. 01:20:45.417 : en:第 09 章

  111. 01:27:14.083 : en:第 10 章

  112. 01:39:41.083 : en:第 11 章




复制代码



文件下载


除非特别注明,本文『斗破乱世情[国英多音轨/简繁字幕].Legend.of.Lv.Bu.2020.BluRay.1080p.DTS-HD.MA5.1.x265.10bit 6.04GB』来源于互联网机器人自动抓取,非本站原创。 浮游电影网不对本文拥有版权,如有侵犯,请联系邮箱:fuyouu#yandex.com[#换成@]投诉。我们会在15个工作日内删除。 但烦请转载时请标明出处:“本文转载于『浮游电影网』,原文地址:https://www.fuyouu.com/14943.html

评论吧骚年!

发表你的见解   

昵称*

E-mail*(建议输入,以便收到博主回复的提示邮件)

验证码*

您可以使用eMule或eMule Mod(Windows)、aMule(Win、Linux、Mac)等软件下载eD2k链接。。
eMule收藏集(.emulecollection)文件是您选中的所有链接的列表文件。eMule可以直接下载它们。
按住SHIFT键选择可以选中多个选择框。
可用文件名和大小选择器来选择文件。
文件名选择器帮您根据文件名称或后缀来选择文件。不分大小写。
符号使用:
和:空格( )、+
不包含:-
或:|
转义:一对英文引号("");
匹配开头:^
匹配结尾:$
例如:
选中所有名称中包含有“eMule”或“0.49c”字眼,但不包含有“exe”字眼的:emule|0.49c -exe
选中所有名称的开头是“eMule”,结尾是“0.49c”的:^emule 0.49c$
选中所有名称中带有“eMule 0.49c”的(必须是“eMule 0.49c”,中间没有别的字符,不能是“eMule fake 0.49c”),需要转义:"emule 0.49c"
大小选择器帮您根据文件大小选择文件。