当前位置: 首页 >> 欧美电影 >> 混沌行走[简繁字幕].Chaos.Walking.2021.BluRay.1080p.TrueHD.Atmos.7.1.x265.10bit 7.70GB >> 正文

混沌行走[简繁字幕].Chaos.Walking.2021.BluRay.1080p.TrueHD.Atmos.7.1.x265.10bit 7.70GB

2021年10月14日 15:52:25     电影发布:来源于网络     电影分类:欧美电影     评论(0)    

混沌行走[简繁字幕].Chaos.Walking.2021.BluRay.1080p.TrueHD.Atmos.7.1.x265.10bit 7.70GB 科幻片 冒险片 动作片 欧美电影  第1张

◎译 名 混沌行走 / 混沌漫步 / 噪反(台) / 读心叛变(港)

◎片 名 Chaos Walking

◎年 代 2021

◎产 地 美国 / 加拿大

◎类 别 动作 / 科幻 / 冒险

◎语 言 英语

◎上映日期 2021-08-27(中国大陆) / 2021-03-05(美国)

◎IMDb链接 https://www.imdb.com/title/tt2076822/

◎豆瓣评分 5.2/10 (8722人评价)

◎豆瓣链接 https://movie.douban.com/subject/6874475/

◎片 长 109分钟

◎导 演 道格·里曼 Doug Liman (id:1022741)

◎编 剧 帕特里克·内斯 Patrick Ness (id:1365421)

克里斯托弗·D·福特 Christopher D. Ford (id:1326790)

林赛·比尔 Lindsey Beer (id:1400629)

约翰·李·汉考克 John Lee Hancock (id:1285940)

加里·斯皮内利 Gary Spinelli (id:1381749)

安德鲁·戈特利布 Andrew Gottlieb (id:1285227)

大卫·罗森 David Rosen (id:1410558)

◎演 员 汤姆·赫兰德 Tom Holland (id:1325351)

黛西·雷德利 Daisy Ridley (id:1339916)

德米安·比齐尔 Demián Bichir (id:1022762)

大卫·奥伊罗 David Oyelowo (id:1000231)

科特·萨特 Kurt Sutter (id:1325346)

辛西娅·艾莉佛 Cynthia Erivo (id:1372029)

贝瑟妮·安妮·林德 Bethany Anne Lind (id:1385579)

麦斯·米科尔森 Mads Mikkelsen (id:1040529)

尼克·乔纳斯 Nick Jonas (id:1049552)

雷·迈克金农 Ray McKinnon (id:1041216)

文森特·莱克莱尔 Vincent Leclerc (id:1423737)

布兰·克洛卡雷尔 Blane Crockarell (id:1453029)

蒂龙·本斯金 Tyrone Benskin (id:1389182)

弗兰克·方丹 Frank Fontaine (id:1083331)

帕特里克·加洛 Patrick Garrow (id:1338051)

玛丽莲·迪恩-罗比齐 Mylène Dinh-Robic (id:1188884)

朱利安·瑞钦斯 Julian Richings (id:1147415)

迈克尔·戴森 Michael Dyson (id:1369997)

马克斯韦尔·麦卡比-洛克斯 Maxwell McCabe-Lokos (id:1333878)

迈克尔·亚穆什 Michael Yarmush (id:1161588)

布莱恩·亚历山大 Brian Alexander (id:1038538)

奥妮克·阿德莉 Olunike Adeliyi (id:1410668)

克劳迪娅·贝索 Claudia Besso (id:1380062)

奥斯卡·贾恩那达 óscar Jaenada (id:1044925)

塔拉·尼科迪莫 Tara Nicodemo (id:1394629)

哈里森·奥斯特菲尔德 Harrison Osterfield (id:1390033)

兰博基尼 Lamborghini (id:1454716)

维斯顿 Wiston (id:1454719)

马可·贝尔崔米 Marco Beltrami (id:1027998)

布兰登·罗伯茨 Brandon Roberts (id:1446181)

本·塞雷森 Ben Seresin (id:1434113)

凯特·霍利 Kate Hawley (id:1421062)

◎标 签 科幻 / 美国 / 2021 / 冒险 / 反乌托邦 / 小说改编 / 青春 / 剧情

◎简 介

人类在与地球相似的遥远外星建立了新家园,但这个星球上却有一种病毒,男人感染后可以听到其他人和动物的心声,每个男人脑子里的想法都能被他人听到,人与人之间不存在隐私,新星球上的普伦提司镇的男人们就不堪忍受自己的想法被人听见。

托德·赫维特(汤姆·赫兰德 饰)是出生于这座小镇的 男孩,他的认知中小镇没有女人是因为该星球土著居民蓝光兽家园被人类侵犯时故意让人类感染了噪音病毒,他们还杀光了所有女性。托德对此深信不疑,直到他遇到一个女孩。

托德在小镇附近的森林里遇到了一个叫维奥拉(黛西·雷德利 饰)的女孩,她来自遥远的地球,她的飞船因故坠毁在森林里,普伦提司镇的镇长在得知这个消息后立刻展开对他俩的追杀,托德为了保护女孩维奥拉只好一起出逃,开始了一段他意想不到且危机重重的星球冒险。

  1. ##### MediaInfo ######

  2. General

  3. Unique ID : 9214705235200040106838377897762863048 (0x6EEB00B69345C3167750724A819B7C8)

  4. Complete name : Ch[email protected]BBQDDQ.COM.mkv

  5. Format : Matroska

  6. Format version : Version 4

  7. File size : 7.69 GiB

  8. Duration : 1 h 49 min

  9. Overall bit rate mode : Variable

  10. Overall bit rate : 10.1 Mb/s

  11. Encoded date : UTC 2021-10-13 01:23:08

  12. Writing application : mkvmerge v49.0.0 ('Sick Of Losing Soulmates') 64-bit

  13. Writing library : libebml v1.4.0 + libmatroska v1.6.1


  14. Video

  15. ID : 1

  16. Format : HEVC

  17. Format/Info : High Efficiency Video Coding

  18. Format profile : Main [email protected]@High

  19. Codec ID : V_MPEGH/ISO/HEVC

  20. Duration : 1 h 49 min

  21. Bit rate : 5 363 kb/s

  22. Width : 1 920 pixels

  23. Height : 800 pixels

  24. Display aspect ratio : 2.40:1

  25. Frame rate mode : Constant

  26. Frame rate : 23.976 (24000/1001/53354) FPS

  27. Color space : YUV

  28. Chroma subsampling : 4:2:0

  29. Bit depth : 10 bits

  30. Bits/(Pixel*Frame) : 0.146

  31. Stream size : 4.09 GiB (53%)

  32. Title : HEVC, [email protected]@High, 24/1.001 fps @ 5363 kbps

  33. Writing library : x265 3.4+14-gd419c7152:[Windows][GCC 10.2.0][64 bit] 10bit

  34. Encoding settings : cpuid=533541111039 / frame-threads=4 / numa-pools=20 / wpp / pmode / pme / no-psnr / no-ssim / log-level=2 / input-csp=1 / input-res=1920x800 / interlace=0 / total-frames=157135 / level-idc=51 / high-tier=1 / uhd-bd=0 / ref=5 / no-allow-non-conformance / no-repeat-headers / annexb / no-aud / no-hrd / info / hash=0 / no-temporal-layers / open-gop / min-keyint=24 / keyint=240 / gop-lookahead=0 / bframes=6 / b-adapt=2 / b-pyramid / bframe-bias=0 / rc-lookahead=40 / lookahead-slices=0 / NTMzNTQ=uuDQuD2mJt9fsCf / scenecut=40 / hist-scenecut=0 / radl=0 / no-splice / no-intra-refresh / ctu=32 / min-cu-size=8 / no-rect / no-amp / max-tu-size=32 / tu-inter-depth=3 / tu-intra-depth=3 / limit-tu=4 / rdoq-level=2 / dynamic-rd=0.00 / no-ssim-rd / signhide / no-tskip / nr-intra=0 / nr-inter=0 / no-constrained-intra / no-strong-intra-smoothing / max-merge=4 / limit-refs=1 / limit-modes / me=3 / subme=4 / merange=25 / temporal-mvp / no-frame-dup / no-hme / weightp / weightb / no-analyze-src-pics / deblock=-3:-3 / no-sao / no-sao-non-deblock / rd=6 / selective-sao=0 / no-early-skip / rskip / no-fast-intra / no-tskip-fast / no-cu-lossless / b-intra / no-splitrd-skip / rdpenalty=0 / psy-rd=2.00 / psy-rdoq=1.00 / no-rd-refine / no-lossless / cbqpoffs=0 / crqpoffs=0 / rc=crf / crf=17.0 / qcomp=0.65 / qpstep=4 / stats-write=0 / stats-read=0 / vbv-maxrate=80000 / vbv-bufsize=80000 / vbv-init=0.9 / crf-max=0.0 / crf-min=0.0 / ipratio=1.40 / pbratio=1.30 / aq-mode=2 / aq-strength=0.85 / cutree / zone-count=0 / no-strict-cbr / qg-size=32 / no-rc-grain / qpmax=69 / qpmin=0 / no-const-vbv / sar=1 / overscan=0 / videoformat=5 / range=0 / colorprim=1 / transfer=1 / colormatrix=1 / chromaloc=0 / display-window=0 / cll=0,0 / min-luma=0 / max-luma=1023 / log2-max-poc-lsb=8 / vui-timing-info / vui-hrd-info / slices=1 / no-opt-qp-pps / no-opt-ref-list-length-pps / no-multi-pass-opt-rps / scenecut-bias=0.05 / hist-threshold=0.03 / no-opt-cu-delta-qp / no-aq-motion / no-hdr10 / no-hdr10-opt / no-dhdr10-opt / no-idr-recovery-sei / analysis-reuse-level=0 / analysis-save-reuse-level=0 / analysis-load-reuse-level=0 / scale-factor=0 / refine-intra=0 / refine-inter=0 / refine-mv=1 / refine-ctu-distortion=0 / no-limit-sao / ctu-info=0 / no-lowpass-dct / refine-analysis-type=0 / copy-pic=1 / max-ausize-factor=1.0 / no-dynamic-refine / no-single-sei / no-hevc-aq / no-svt / no-field / qp-adaptation-range=1.00 / no-scenecut-aware-qpconformance-window-offsets / right=0 / bottom=0 / NTMzNTQ= / decoder-max-rate=0

  35. Language : English

  36. Default : Yes

  37. Forced : No

  38. Color range : Limited

  39. Color primaries : BT.709

  40. Transfer characteristics : BT.709

  41. Matrix coefficients : BT.709


  42. Audio #1

  43. ID : 2

  44. Format : MLP FBA 16-ch

  45. Format/Info : Meridian Lossless Packing FBA with 16-channel presentation

  46. Commercial name : Dolby TrueHD with Dolby Atmos

  47. Codec ID : A_TRUEHD

  48. Duration : 1 h 49 min

  49. Bit rate mode : Variable

  50. Bit rate : 3 616 kb/s

  51. Maximum bit rate : 6 087 kb/s

  52. Channel(s) : 8 channels

  53. Channel layout : L R C LFE Ls Rs Lb Rb

  54. Sampling rate : 48.0 kHz

  55. Frame rate : 1 200.000 FPS (40 SPF)

  56. Compression mode : Lossless

  57. Stream size : 2.76 GiB (36%)

  58. Title : English Dolby TrueHD 7.1 (Atmos) @ 4256 kbps

  59. Language : English

  60. Default : Yes

  61. Forced : No

  62. Number of dynamic objects : 13

  63. Bed channel count : 1 channel

  64. Bed channel configuration : LFE


  65. Audio #2

  66. ID : 3

  67. Format : AC-3

  68. Format/Info : Audio Coding 3

  69. Commercial name : Dolby Digital

  70. Codec ID : A_AC3

  71. Duration : 1 h 49 min

  72. Bit rate mode : Constant

  73. Bit rate : 640 kb/s

  74. Channel(s) : 6 channels

  75. Channel layout : L R C LFE Ls Rs

  76. Sampling rate : 48.0 kHz

  77. Frame rate : 31.250 FPS (1536 SPF)

  78. Compression mode : Lossy

  79. Stream size : 500 MiB (6%)

  80. Title : English Dolby 5.1-EX 5.1 @ 640 kbps

  81. Language : English

  82. Service kind : Complete Main

  83. Default : No

  84. Forced : No


  85. Audio #3

  86. ID : 4

  87. Format : AC-3

  88. Format/Info : Audio Coding 3

  89. Commercial name : Dolby Digital

  90. Codec ID : A_AC3

  91. Duration : 1 h 49 min

  92. Bit rate mode : Constant

  93. Bit rate : 192 kb/s

  94. Channel(s) : 2 channels

  95. Channel layout : L R

  96. Sampling rate : 48.0 kHz

  97. Frame rate : 31.250 FPS (1536 SPF)

  98. Compression mode : Lossy

  99. Stream size : 150 MiB (2%)

  100. Title : English Dolby Digital Audio 2.0 @ 192 kbps Commentary

  101. Language : English

  102. Service kind : Complete Main

  103. Default : No

  104. Forced : No


  105. Text #1

  106. ID : 5

  107. Format : PGS

  108. Codec ID : S_HDMV/PGS

  109. Codec ID/Info : Picture based subtitle format used on BDs/HD-DVDs

  110. Duration : 1 h 37 min

  111. Bit rate : 38.4 kb/s

  112. Count of elements : 2264

  113. Stream size : 26.8 MiB (0%)

  114. Title : Eng/SUP

  115. Language : English

  116. Default : No

  117. Forced : No


  118. Text #2

  119. ID : 6

  120. Format : PGS

  121. Codec ID : S_HDMV/PGS

  122. Codec ID/Info : Picture based subtitle format used on BDs/HD-DVDs

  123. Duration : 1 h 38 min

  124. Bit rate : 32.6 kb/s

  125. Count of elements : 2616

  126. Stream size : 23.0 MiB (0%)

  127. Title : Chs/SUP 简体

  128. Language : Chinese

  129. Default : Yes

  130. Forced : No


  131. Text #3

  132. ID : 7

  133. Format : PGS

  134. Codec ID : S_HDMV/PGS

  135. Codec ID/Info : Picture based subtitle format used on BDs/HD-DVDs

  136. Duration : 1 h 38 min

  137. Bit rate : 33.2 kb/s

  138. Count of elements : 2616

  139. Stream size : 23.4 MiB (0%)

  140. Title : Cht/SUP 繁体

  141. Language : Chinese

  142. Default : No

  143. Forced : No


  144. Text #4

  145. ID : 8

  146. Format : PGS

  147. Codec ID : S_HDMV/PGS

  148. Codec ID/Info : Picture based subtitle format used on BDs/HD-DVDs

  149. Duration : 1 h 38 min

  150. Bit rate : 61.4 kb/s

  151. Count of elements : 2218

  152. Stream size : 43.2 MiB (1%)

  153. Title : Chs/SUP 简英双语

  154. Language : Chinese

  155. Default : No

  156. Forced : No


  157. Text #5

  158. ID : 9

  159. Format : PGS

  160. Codec ID : S_HDMV/PGS

  161. Codec ID/Info : Picture based subtitle format used on BDs/HD-DVDs

  162. Duration : 1 h 38 min

  163. Bit rate : 62.3 kb/s

  164. Count of elements : 2218

  165. Stream size : 43.8 MiB (1%)

  166. Title : Cht/SUP 繁英双语

  167. Language : Chinese

  168. Default : No

  169. Forced : No


  170. Menu

  171. 00:00:00.000 : en:第 01 章

  172. 00:10:13.070 : en:第 02 章

  173. 00:20:14.003 : en:第 03 章

  174. 00:29:38.151 : en:第 04 章

  175. 00:40:01.773 : en:第 05 章

  176. 00:49:23.210 : en:第 06 章

  177. 00:59:10.003 : en:第 07 章

  178. 01:10:13.583 : en:第 08 章

  179. 01:20:41.711 : en:第 09 章

  180. 01:31:04.457 : en:第 10 章

  181. 01:39:06.356 : en:第 11 章




复制代码




文件下载


除非特别注明,本文『混沌行走[简繁字幕].Chaos.Walking.2021.BluRay.1080p.TrueHD.Atmos.7.1.x265.10bit 7.70GB』来源于互联网机器人自动抓取,非本站原创。 浮游电影网不对本文拥有版权,如有侵犯,请联系邮箱:fuyouu#yandex.com[#换成@]投诉。我们会在15个工作日内删除。 但烦请转载时请标明出处:“本文转载于『浮游电影网』,原文地址:https://www.fuyouu.com/14942.html

评论吧骚年!

发表你的见解   

昵称*

E-mail*(建议输入,以便收到博主回复的提示邮件)

验证码*

您可以使用eMule或eMule Mod(Windows)、aMule(Win、Linux、Mac)等软件下载eD2k链接。。
eMule收藏集(.emulecollection)文件是您选中的所有链接的列表文件。eMule可以直接下载它们。
按住SHIFT键选择可以选中多个选择框。
可用文件名和大小选择器来选择文件。
文件名选择器帮您根据文件名称或后缀来选择文件。不分大小写。
符号使用:
和:空格( )、+
不包含:-
或:|
转义:一对英文引号("");
匹配开头:^
匹配结尾:$
例如:
选中所有名称中包含有“eMule”或“0.49c”字眼,但不包含有“exe”字眼的:emule|0.49c -exe
选中所有名称的开头是“eMule”,结尾是“0.49c”的:^emule 0.49c$
选中所有名称中带有“eMule 0.49c”的(必须是“eMule 0.49c”,中间没有别的字符,不能是“eMule fake 0.49c”),需要转义:"emule 0.49c"
大小选择器帮您根据文件大小选择文件。