当前位置: 首页 >> 国产电影 >> 十面埋伏[国粤语配音/中文字幕].House.of.Flying.Daggers.2004.1080p.BluRay.x265.10bit.DTS.2Audio 7.92GB >> 正文

十面埋伏[国粤语配音/中文字幕].House.of.Flying.Daggers.2004.1080p.BluRay.x265.10bit.DTS.2Audio 7.92GB

2021年10月14日 15:50:40     电影发布:来源于网络     电影分类:国产电影     评论(0)    

p2160809605.jpg

◎译 名 十面埋伏 / House of Flying Daggers / Lovers

◎年 代 2004

◎产 地 中国大陆 / 中国香港

◎类 别 剧情 / 武侠 / 古装

◎语 言 汉语普通话

◎上映日期 2004-07-16(中国大陆) / 2004-07-15(中国香港)

◎IMDb链接 https://www.imdb.com/title/tt0385004/

◎豆瓣评分 6.3/10 (184543人评价)

◎豆瓣链接 https://movie.douban.com/subject/1308722/

◎片 长 119分钟

◎导 演 张艺谋 Yimou Zhang (id:1054398)

◎编 剧 李冯 Feng Li (id:1303513)

王斌 Bin Wang (id:1300385)

张艺谋 Yimou Zhang (id:1054398)

◎演 员 金城武 Takeshi Kaneshiro (id:1027883)

刘德华 Andy Lau (id:1054424)

章子怡 Ziyi Zhang (id:1041014)

宋丹丹 Dandan Song (id:1274670)

刘腾远 Tengyuan Liu (id:1323764)

赵鸿飞 Hongfei Zhao (id:1314037)

郭军 Jun Guo (id:1365705)

张恕 Shuo Zhang (id:1455718)

王永鑫 Yongxin Wang (id:1386896)

李妍锡 Yanxi Li (id:1427992)

王祖蓝 Cho-lam Wong (id:1274238)

东靖川 Jingchuan Dong (id:1373345)

朱玟晞 Wenxi Zhu (id:1318305)

张艺谋 Yimou Zhang (id:1054398)

江志强 William Kong (id:1288870)

张伟平 Weiping Zhang (id:1301698)

梅林茂 Shigeru Umebayashi (id:1005471)

白小妍 Xiaoyan Bai (id:1406328)

赵小丁 Xiaoding Zhao (id:1274347)

程珑 Long Cheng (id:1308012)

赵斌 Bin Zhao (id:1302460)

韩忠 Zhong Han (id:1307851)

武明 Ming Wu (id:1379290)

杨占家 Zhanjia Yang (id:1301416)

刘绍春 Shaochun Liu (id:1384980)

霍廷霄 Tingxiao Huo (id:1287179)

和田惠美 Emi Wada (id:1033613)

杨晓海 Xiaohai Yang (id:1309838)

仇小梅 Siu-Mui Chau (id:1280537)

关莉娜 Lee-na Kwan (id:1289154)

陶经 Jing Tao (id:1298913)

彼得·韦伯 Peter Webb (id:1300555)

黄宏达 Victor Wong (id:1307421)

保罗·巴克利 Paul Buckley (id:1304290)

黄宏显 Eddy Wong (id:1302455)

穆雷·蒲柏 Murray Pope (id:1294732)

马克·内特尔顿 Mark Nettleton (id:1293077)

科斯蒂·米勒 Kirsty Millar (id:1292057)

温皓 Hao Wen (id:1396699)

安迪·布朗 Andy Brown (id:1279427)

大卫·布斯 David Booth (id:1278973)

程小东 Siu-Tung Ching (id:1280664)

仲锋 Zhong Feng (id:1309826)

梅艳芳 Anita Mui (id:1047976)

◎标 签 张艺谋 / 武侠 / 章子怡 / 金城武 / 动作 / 刘德华 / 中国电影 / 中国

◎简 介

唐大中十三年,民间涌现不少反昏君反腐官的组织,其中以打着“杀富济贫推翻朝廷”旗号的飞刀门的势力最大。飞刀门总部设在靠近都城长安的奉天县境内,为保长安安全,朝廷下令奉天县府将飞刀门成员悉数剿灭。

奉天县两大捕头刘捕头(刘德华)与金捕头(金城武)收到限期缉拿飞刀门新任帮主归案的命令。因怀疑牡丹坊的舞妓小妹(章子怡)是飞刀门前帮主的女儿,刘捕头设计将她拿下押入天牢,后又与金捕头再度设下圈套令金捕头化身义士将她救出,想骗取她的信任查出飞刀门的巢穴,但他不知的是,除了在公务上与金捕头和小妹打交道外,私情上也会与他们有番纠缠。

◎获奖情况 (共25项)

第77届奥斯卡金像奖 (2005)

最佳摄影(提名)

└──赵小丁 (id:1274347)

第62届金球奖 (2005)

电影类 最佳外语片(提名)

第24届香港电影金像奖 (2005)

最佳亚洲电影(提名)

第58届英国电影学院奖 (2005)

电影奖 最佳女主角(提名)

└──章子怡 (id:1041014)

电影奖 最佳非英语片(提名)

电影奖 最佳摄影(提名)

└──赵小丁 (id:1274347)

电影奖 最佳剪辑(提名)

└──程珑 (id:1308012)

电影奖 最佳化妆/发型(提名)

电影奖 最佳服装设计(提名)

└──和田惠美 (id:1033613)

电影奖 最佳艺术指导(提名)

└──霍廷霄 (id:1287179)

电影奖 最佳特殊视觉效果(提名)

电影奖 最佳音效(提名)

第14届MTV电影奖 (2005)

MTV电影奖 最佳打斗(提名)

└──章子怡 (id:1041014)

第24届中国电影金鸡奖 (2004)

最佳故事片(提名)

最佳导演(提名)

└──张艺谋 (id:1054398)

最佳美术

└──霍廷霄 (id:1287179)

最佳录音(提名)

└──陶经 (id:1298913)

第28届大众电影百花奖 (2006)

最佳导演(提名)

└──张艺谋 (id:1054398)

最佳女主角(提名)

└──章子怡 (id:1041014)

最佳男配角(提名)

└──刘德华 (id:1054424)

第11届中国电影华表奖 (2005)

优秀故事片奖(提名)

优秀女演员奖

└──章子怡 (id:1041014)

优秀电影技术奖

市场开拓奖

第5届华语电影传媒大奖 (2005)

百家传媒年度致敬电影(提名)

  1. ##### MediaInfo ######

  2. General

  3. Unique ID : 57735161938659552017788364904134220334 (0x2B6F6341C29CA835478F7DC1F9F21A2E)

  4. Complete name : House.[email protected]BBQDDQ.COM.mkv

  5. Format : Matroska

  6. Format version : Version 4

  7. File size : 7.92 GiB

  8. Duration : 1 h 59 min

  9. Overall bit rate : 9 499 kb/s

  10. Movie name : House of Flying Daggers

  11. Encoded date : UTC 2021-10-12 17:09:11

  12. Writing application : mkvmerge v62.0.0 ('Apollo') 64-bit

  13. Writing library : libebml v1.4.2 + libmatroska v1.6.4

  14. Cover : Yes

  15. Attachments : 文泉驿微米黑.ttf / cover.jpg


  16. Video

  17. ID : 1

  18. Format : HEVC

  19. Format/Info : High Efficiency Video Coding

  20. Format profile : Main [email protected]@Main

  21. Codec ID : V_MPEGH/ISO/HEVC

  22. Duration : 1 h 59 min

  23. Bit rate : 6 462 kb/s

  24. Width : 1 916 pixels

  25. Height : 806 pixels

  26. Display aspect ratio : 2.40:1

  27. Frame rate mode : Constant

  28. Frame rate : 23.976 (24000/1001/53354) FPS

  29. Color space : YUV

  30. Chroma subsampling : 4:2:0

  31. Bit depth : 10 bits

  32. Bits/(Pixel*Frame) : 0.175

  33. Stream size : 5.39 GiB (68%)

  34. Writing library : x265 3.5+2-g2b25c9ba0+45:[Windows][GCC 10.2.0][64 bit] Yuuki 10bit+8bit+12bit

  35. Encoding settings : rc=crf / crf=22.5000 / qcomp=0.60 / qpstep=4 / stats-write=0 / stats-read=0 / no-lossless / no-cu-lossless / aq-mode=3 / aq-strength=0.90 / cbqpoffs=0 / crqpoffs=0 / ipratio=1.40 / pbratio=1.30 / psy-rd=2.00 / psy-rdoq=0.00 / deblock=0:0 / ref=6 / limit-refs=1 / no-limit-modes / bframes=8 / b-adapt=2 / bframe-bias=0 / b-pyramid / b-intra / weightp / weightb / min-keyint=24 / max-keyint=240 / rc-lookahead=24 / gop-lookahead=0 / NTMzNTQ=uuDQuD2mJt9fsCf / scenecut=40 / hist-scenecut=0 / radl=0 / max-cu-size=64 / min-cu-size=8 / me=3 / subme=7 / merange=48 / rdoq-level=0 / rd=4 / rdpenalty=0 / dynamic-rd=0.00 / no-rd-refine / ----- / cutree / sao / no-rect / no-amp / no-open-gop / wpp / no-pmode / no-pme / no-psnr / no-ssim / nr-intra=0 / nr-inter=0 / no-constrained-intra / no-strong-intra-smoothing / max-tu-size=32 / tu-inter-depth=1 / tu-intra-depth=1 / limit-tu=0 / qg-size=32 / qpmax=69 / qpmin=0 / ----- / cpuid=533541111039 / frame-threads=4 / numa-pools=+ / log-level=2 / input-csp=1 / input-res=1916x806 / interlace=0 / level-idc=0 / high-tier=1 / uhd-bd=0 / no-allow-non-conformance / no-repeat-headers / aud / no-hrd / info / hash=0 / no-temporal-layers / lookahead-slices=0 / no-splice / no-intra-refresh / no-ssim-rd / signhide / no-tskip / max-merge=3 / temporal-mvp / no-frame-dup / no-hme / no-analyze-src-pics / no-sao-non-deblock / selective-sao=4 / early-skip / rskip / no-fast-intra / no-tskip-fast / no-splitrd-skip / zone-count=0 / no-strict-cbr / no-rc-grain / no-const-vbv / sar=0 / overscan=0 / videoformat=5 / range=0 / colorprim=2 / transfer=2 / colormatrix=2 / chromaloc=0 / display-window=0 / cll=0,0 / min-luma=0 / max-luma=1023 / log2-max-poc-lsb=8 / vui-timing-info / vui-hrd-info / slices=1 / no-opt-qp-pps / no-opt-ref-list-length-pps / no-multi-pass-opt-rps / scenecut-bias=0.05 / hist-threshold=0.03 / no-opt-cu-delta-qp / no-aq-motion / no-hdr10 / no-hdr10-opt / no-dhdr10-opt / no-idr-recovery-sei / analysis-reuse-level=0 / analysis-save-reuse-level=0 / analysis-load-reuse-level=0 / scale-factor=0 / refine-intra=0 / refine-inter=0 / refine-mv=1 / refine-ctu-distortion=0 / no-limit-sao / ctu-info=0 / no-lowpass-dct / refine-analysis-type=0 / copy-pic=1 / max-ausize-factor=1.0 / no-dynamic-refine / no-single-sei / no-hevc-aq / no-svt / no-field / qp-adaptation-range=1.00 / scenecut-aware-qp=0conformance-window-offsets / right=0 / bottom=0 / NTMzNTQ= / decoder-max-rate=0 / no-vbv-live-multi-pass

  36. Default : Yes

  37. Forced : No


  38. Audio #1

  39. ID : 2

  40. Format : DTS

  41. Format/Info : Digital Theater Systems

  42. Codec ID : A_DTS

  43. Duration : 1 h 59 min

  44. Bit rate mode : Constant

  45. Bit rate : 1 510 kb/s

  46. Channel(s) : 6 channels

  47. Channel layout : C L R Ls Rs LFE

  48. Sampling rate : 48.0 kHz

  49. Frame rate : 93.750 FPS (512 SPF)

  50. Bit depth : 24 bits

  51. Compression mode : Lossy

  52. Stream size : 1.26 GiB (16%)

  53. Title : Mandarin

  54. Language : Chinese

  55. Default : Yes

  56. Forced : No


  57. Audio #2

  58. ID : 3

  59. Format : DTS

  60. Format/Info : Digital Theater Systems

  61. Codec ID : A_DTS

  62. Duration : 1 h 59 min

  63. Bit rate mode : Constant

  64. Bit rate : 1 510 kb/s

  65. Channel(s) : 6 channels

  66. Channel layout : C L R Ls Rs LFE

  67. Sampling rate : 48.0 kHz

  68. Frame rate : 93.750 FPS (512 SPF)

  69. Bit depth : 24 bits

  70. Compression mode : Lossy

  71. Stream size : 1.26 GiB (16%)

  72. Title : Cantonese

  73. Language : Chinese

  74. Default : No

  75. Forced : No


  76. Text #1

  77. ID : 4

  78. Format : ASS

  79. Codec ID : S_TEXT/ASS

  80. Codec ID/Info : Advanced Sub Station Alpha

  81. Duration : 1 h 53 min

  82. Bit rate : 48 b/s

  83. Count of elements : 628

  84. Compression mode : Lossless

  85. Stream size : 40.5 KiB (0%)

  86. Title : chs

  87. Language : Chinese

  88. Default : Yes

  89. Forced : No


  90. Text #2

  91. ID : 5

  92. ID in the original source medium : 4608 (0x1200)

  93. Format : PGS

  94. Muxing mode : zlib

  95. Codec ID : S_HDMV/PGS

  96. Codec ID/Info : Picture based subtitle format used on BDs/HD-DVDs

  97. Duration : 1 h 53 min

  98. Bit rate : 11.9 kb/s

  99. Count of elements : 1256

  100. Stream size : 9.72 MiB (0%)

  101. Title : cht

  102. Language : Chinese

  103. Default : No

  104. Forced : No

  105. Original source medium : Blu-ray


  106. Text #3

  107. ID : 6

  108. ID in the original source medium : 4609 (0x1201)

  109. Format : PGS

  110. Muxing mode : zlib

  111. Codec ID : S_HDMV/PGS

  112. Codec ID/Info : Picture based subtitle format used on BDs/HD-DVDs

  113. Duration : 1 h 53 min

  114. Bit rate : 14.1 kb/s

  115. Count of elements : 1290

  116. Stream size : 11.5 MiB (0%)

  117. Title : eng

  118. Language : English

  119. Default : No

  120. Forced : No

  121. Original source medium : Blu-ray


  122. Menu

  123. 00:00:00.000 : en:第 01 章

  124. 00:10:24.957 : en:第 02 章

  125. 00:19:06.603 : en:第 03 章

  126. 00:28:23.827 : en:第 04 章

  127. 00:37:30.998 : en:第 05 章

  128. 00:45:31.103 : en:第 06 章

  129. 00:56:28.718 : en:第 07 章

  130. 01:03:13.623 : en:第 08 章

  131. 01:15:12.883 : en:第 09 章

  132. 01:27:41.297 : en:第 10 章

  133. 01:38:02.084 : en:第 11 章

  134. 01:47:37.993 : en:第 12 章


文件下载


除非特别注明,本文『十面埋伏[国粤语配音/中文字幕].House.of.Flying.Daggers.2004.1080p.BluRay.x265.10bit.DTS.2Audio 7.92GB』来源于互联网机器人自动抓取,非本站原创。 浮游电影网不对本文拥有版权,如有侵犯,请联系邮箱:fuyouu#yandex.com[#换成@]投诉。我们会在15个工作日内删除。 但烦请转载时请标明出处:“本文转载于『浮游电影网』,原文地址:https://www.fuyouu.com/14941.html

评论吧骚年!

发表你的见解   

昵称*

E-mail*(建议输入,以便收到博主回复的提示邮件)

验证码*

您可以使用eMule或eMule Mod(Windows)、aMule(Win、Linux、Mac)等软件下载eD2k链接。。
eMule收藏集(.emulecollection)文件是您选中的所有链接的列表文件。eMule可以直接下载它们。
按住SHIFT键选择可以选中多个选择框。
可用文件名和大小选择器来选择文件。
文件名选择器帮您根据文件名称或后缀来选择文件。不分大小写。
符号使用:
和:空格( )、+
不包含:-
或:|
转义:一对英文引号("");
匹配开头:^
匹配结尾:$
例如:
选中所有名称中包含有“eMule”或“0.49c”字眼,但不包含有“exe”字眼的:emule|0.49c -exe
选中所有名称的开头是“eMule”,结尾是“0.49c”的:^emule 0.49c$
选中所有名称中带有“eMule 0.49c”的(必须是“eMule 0.49c”,中间没有别的字符,不能是“eMule fake 0.49c”),需要转义:"emule 0.49c"
大小选择器帮您根据文件大小选择文件。