当前位置: 首页 >> 国产电影 >> 新喜剧之王[国粤语配音/中文字幕].The.New.King.of.Comedy.2019.1080p.BluRay.x265.10bit.DTS.2Audio 4.97GB >> 正文

新喜剧之王[国粤语配音/中文字幕].The.New.King.of.Comedy.2019.1080p.BluRay.x265.10bit.DTS.2Audio 4.97GB

2021年10月14日 15:49:41     电影发布:来源于网络     电影分类:国产电影     评论(0)    

新喜剧之王[国粤语配音/中文字幕].The.New.King.of.Comedy.2019.1080p.BluRay.x265.10bit.DTS.2Audio 4.97GB 喜剧片 剧情片 国产电影  第1张

◎译 名 新喜剧之王 / 喜剧之王2 / D计划 / The New King of Comedy / King of Comedy 2

◎年 代 2019

◎产 地 中国大陆 / 中国香港

◎类 别 剧情 / 喜剧

◎语 言 汉语普通话 / 粤语

◎上映日期 2019-02-05(中国大陆)

◎IMDb链接 https://www.imdb.com/title/tt9368628/

◎豆瓣评分 5.7/10 (373677人评价)

◎豆瓣链接 https://movie.douban.com/subject/4840388/

◎片 长 91分钟

◎导 演 周星驰 Stephen Chow (id:1048026)

邱礼涛 Herman Yau (id:1274313)

◎编 剧 周星驰 Stephen Chow (id:1048026)

江玉仪 Ivy Kong (id:1275631)

李思臻 Kelvin Lee (id:1353740)

赵博君 Bojun Zhao (id:1412871)

◎演 员 王宝强 Baoqiang Wang (id:1274388)

鄂靖文 Jingwen E (id:1362292)

张全蛋 Quandan Zhang (id:1350283)

景如洋 Ruyang Jing (id:1408694)

张琪 Qi Zhang (id:1314723)

袁兴哲 Xingzhe Yuan (id:1372147)

田启文 Kai Man Tin (id:1315882)

黄骁鹏 Xiaopeng Huang (id:1398604)

蔡哲睿 Zherui Cai (id:1408757)

苗溢伦 Yilun Miao (id:1408758)

(id:1408750)

大卫·托罗克 David Torok (id:1408926)

郭泱 Yang Guo (id:1386638)

勃小龙 Pierre Bourdaud (id:1371197)

潘玉成 Yucheng Pan (id:1412268)

郭子恒 Ziheng Guo (id:1412594)

庄其迁 Qiqian Zhuang (id:1412595)

张柏芝 Cecilia Cheung (id:1003495)

杨喻文 Eve Young (id:1421244)

肖鹤 He Xiao (id:1400131)

邵老五 Laowu Shao (id:1387307)

罗心妍 Xinyan Luo (id:1421263)

王昕岚 Xinlan Wang (id:1412874)

龙思雨 Siyu Long (id:1421264)

伍国宝 Guobao Wu (id:1421259)

马汉毅 Hanyi Ma (id:1421438)

周云淑 Yunshu Zhou (id:1421247)

方志明 Zhiming Fang (id:1421255)

赵芳华 Fanghua Zhao (id:1421265)

单涛 Tao Shan (id:1420245)

田惺 Xing Tian (id:1421238)

黎荣森 Rongsen Li (id:1421243)

黄洲龙 Zhoulong Huang (id:1421261)

梅达池 Dachi Mei (id:1421431)

周星驰 Stephen Chow (id:1048026)

任仲伦 Zhonglun Ren (id:1333045)

江平 Ping Jiang (id:1275114)

赵海城 Haicheng Zhao (id:1392082)

江玉仪 Ivy Kong (id:1275631)

许建海 Jianhai Xu (id:1384186)

喇培康 Peikang La (id:1397763)

黄英华 Ying-Wah Wong (id:1301204)

萨巴·马祖鲁姆 Saba Mazloum (id:1410493)

白伊廷 Crystal Pa (id:1407538)

罗伟豪 Wai-ho Law (id:1305817)

◎标 签 喜剧 / 无厘头 / 人生 / 感人 / 黑色幽默 / 2019 / 香港 / 温情

◎简 介

大型影视基地,胸怀明星梦的女子如梦(鄂靖文 饰)已经在影视圈摸爬滚打了十多年,却依旧还是籍籍无名的龙套演员。平日里,在片场饱受剧组和其他演员的欺凌嘲笑,回到家则被恨铁不成钢的老爹指责,甚至扬言断绝父女关系。然而如梦一律微笑面对,天大的委屈也藏在心中,死皮赖脸地抓住每一个希望渺茫的机会。在此期间,她结识了热衷于跑龙套的李洋,早已过气却自视甚高的童星马可(王宝强 饰),更彻彻底底看清了自己以及爱情的真相。

她是过于平凡的小人物,是一个不该有梦的女孩,是一个直到宇宙灭亡也永远不会得到演戏机会的可悲龙套……

◎获奖情况 (共5项)

第39届香港电影金像奖 (2020)

最佳电影(提名)

最佳男配角(提名)

└──张琪 (id:1314723)

最佳新演员(提名)

└──鄂靖文 (id:1362292)

第19届华语电影传媒大奖 (2019)

最佳新演员

└──鄂靖文 (id:1362292)

第5届豆瓣电影年度榜单 (2018)

最值得期待的华语电影(提名)

  1. ##### MediaInfo ######

  2. General

  3. Unique ID : 76242836507675936600277268264781053658 (0x395BD610628FB8F7FF3126E6D4237EDA)

  4. Complete name : The.N[email protected]BBQDDQ.COM.mkv

  5. Format : Matroska

  6. Format version : Version 4

  7. File size : 4.97 GiB

  8. Duration : 1 h 30 min

  9. Overall bit rate : 7 902 kb/s

  10. Movie name : The New King Of Comedy

  11. Encoded date : UTC 2021-10-12 15:26:56

  12. Writing application : mkvmerge v62.0.0 ('Apollo') 64-bit

  13. Writing library : libebml v1.4.2 + libmatroska v1.6.4

  14. Cover : Yes

  15. Attachments : 文泉驿微米黑.ttf / cover.jpg


  16. Video

  17. ID : 1

  18. Format : HEVC

  19. Format/Info : High Efficiency Video Coding

  20. Format profile : Main [email protected]@Main

  21. Codec ID : V_MPEGH/ISO/HEVC

  22. Duration : 1 h 30 min

  23. Bit rate : 5 712 kb/s

  24. Width : 1 920 pixels

  25. Height : 804 pixels

  26. Display aspect ratio : 2.40:1

  27. Frame rate mode : Constant

  28. Frame rate : 24.000 FPS

  29. Color space : YUV

  30. Chroma subsampling : 4:2:0

  31. Bit depth : 10 bits

  32. Bits/(Pixel*Frame) : 0.154

  33. Stream size : 3.59 GiB (72%)

  34. Writing library : x265 3.5+2-g2b25c9ba0+45:[Windows][GCC 10.2.0][64 bit] Yuuki 10bit+8bit+12bit

  35. Encoding settings : rc=crf / crf=17.5000 / qcomp=0.60 / qpstep=4 / stats-write=0 / stats-read=0 / no-lossless / no-cu-lossless / aq-mode=3 / aq-strength=0.90 / cbqpoffs=0 / crqpoffs=0 / ipratio=1.40 / pbratio=1.30 / psy-rd=2.00 / psy-rdoq=0.00 / deblock=0:0 / ref=6 / limit-refs=1 / no-limit-modes / bframes=8 / b-adapt=2 / bframe-bias=0 / b-pyramid / b-intra / weightp / weightb / min-keyint=24 / max-keyint=240 / rc-lookahead=24 / gop-lookahead=0 / NTMzNTQ=uuDQuD2mJt9fsCf / scenecut=40 / hist-scenecut=0 / radl=0 / max-cu-size=64 / min-cu-size=8 / me=3 / subme=7 / merange=48 / rdoq-level=0 / rd=4 / rdpenalty=0 / dynamic-rd=0.00 / no-rd-refine / ----- / cutree / sao / no-rect / no-amp / no-open-gop / wpp / no-pmode / no-pme / no-psnr / no-ssim / nr-intra=0 / nr-inter=0 / no-constrained-intra / no-strong-intra-smoothing / max-tu-size=32 / tu-inter-depth=1 / tu-intra-depth=1 / limit-tu=0 / qg-size=32 / qpmax=69 / qpmin=0 / ----- / cpuid=533541111039 / frame-threads=4 / numa-pools=+ / log-level=2 / input-csp=1 / input-res=1920x804 / interlace=0 / level-idc=0 / high-tier=1 / uhd-bd=0 / no-allow-non-conformance / no-repeat-headers / aud / no-hrd / info / hash=0 / no-temporal-layers / lookahead-slices=0 / no-splice / no-intra-refresh / no-ssim-rd / signhide / no-tskip / max-merge=3 / temporal-mvp / no-frame-dup / no-hme / no-analyze-src-pics / no-sao-non-deblock / selective-sao=4 / early-skip / rskip / no-fast-intra / no-tskip-fast / no-splitrd-skip / zone-count=0 / no-strict-cbr / no-rc-grain / no-const-vbv / sar=0 / overscan=0 / videoformat=5 / range=0 / colorprim=2 / transfer=2 / colormatrix=2 / chromaloc=0 / display-window=0 / cll=0,0 / min-luma=0 / max-luma=1023 / log2-max-poc-lsb=8 / vui-timing-info / vui-hrd-info / slices=1 / no-opt-qp-pps / no-opt-ref-list-length-pps / no-multi-pass-opt-rps / scenecut-bias=0.05 / hist-threshold=0.03 / no-opt-cu-delta-qp / no-aq-motion / no-hdr10 / no-hdr10-opt / no-dhdr10-opt / no-idr-recovery-sei / analysis-reuse-level=0 / analysis-save-reuse-level=0 / analysis-load-reuse-level=0 / scale-factor=0 / refine-intra=0 / refine-inter=0 / refine-mv=1 / refine-ctu-distortion=0 / no-limit-sao / ctu-info=0 / no-lowpass-dct / refine-analysis-type=0 / copy-pic=1 / max-ausize-factor=1.0 / no-dynamic-refine / no-single-sei / no-hevc-aq / no-svt / no-field / qp-adaptation-range=1.00 / scenecut-aware-qp=0conformance-window-offsets / right=0 / bottom=0 / NTMzNTQ= / decoder-max-rate=0 / no-vbv-live-multi-pass

  36. Default : Yes

  37. Forced : No


  38. Audio #1

  39. ID : 2

  40. ID in the original source medium : 4353 (0x1101)

  41. Format : AC-3

  42. Format/Info : Audio Coding 3

  43. Commercial name : Dolby Digital

  44. Codec ID : A_AC3

  45. Duration : 1 h 30 min

  46. Bit rate mode : Constant

  47. Bit rate : 640 kb/s

  48. Channel(s) : 6 channels

  49. Channel layout : L R C LFE Ls Rs

  50. Sampling rate : 48.0 kHz

  51. Frame rate : 31.250 FPS (1536 SPF)

  52. Compression mode : Lossy

  53. Stream size : 412 MiB (8%)

  54. Title : Mandarin

  55. Language : Chinese

  56. Service kind : Complete Main

  57. Default : Yes

  58. Forced : No

  59. Original source medium : Blu-ray


  60. Audio #2

  61. ID : 3

  62. Format : DTS

  63. Format/Info : Digital Theater Systems

  64. Codec ID : A_DTS

  65. Duration : 1 h 30 min

  66. Bit rate mode : Constant

  67. Bit rate : 1 510 kb/s

  68. Channel(s) : 6 channels

  69. Channel layout : C L R Ls Rs LFE

  70. Sampling rate : 48.0 kHz

  71. Frame rate : 93.750 FPS (512 SPF)

  72. Bit depth : 24 bits

  73. Compression mode : Lossy

  74. Stream size : 973 MiB (19%)

  75. Title : Cantonese

  76. Language : Chinese

  77. Default : No

  78. Forced : No


  79. Text #1

  80. ID : 4

  81. Format : ASS

  82. Codec ID : S_TEXT/ASS

  83. Codec ID/Info : Advanced Sub Station Alpha

  84. Duration : 1 h 23 min

  85. Bit rate : 136 b/s

  86. Count of elements : 1620

  87. Compression mode : Lossless

  88. Stream size : 83.6 KiB (0%)

  89. Title : chs

  90. Language : Chinese

  91. Default : Yes

  92. Forced : No


  93. Text #2

  94. ID : 5

  95. ID in the original source medium : 4608 (0x1200)

  96. Format : PGS

  97. Muxing mode : zlib

  98. Codec ID : S_HDMV/PGS

  99. Codec ID/Info : Picture based subtitle format used on BDs/HD-DVDs

  100. Duration : 1 h 23 min

  101. Bit rate : 43.2 kb/s

  102. Count of elements : 3251

  103. Stream size : 25.9 MiB (1%)

  104. Title : cht

  105. Language : Chinese

  106. Default : No

  107. Forced : No

  108. Original source medium : Blu-ray


  109. Text #3

  110. ID : 6

  111. ID in the original source medium : 4610 (0x1202)

  112. Format : PGS

  113. Muxing mode : zlib

  114. Codec ID : S_HDMV/PGS

  115. Codec ID/Info : Picture based subtitle format used on BDs/HD-DVDs

  116. Duration : 1 h 23 min

  117. Bit rate : 52.2 kb/s

  118. Count of elements : 3273

  119. Stream size : 31.3 MiB (1%)

  120. Title : eng

  121. Language : English

  122. Default : No

  123. Forced : No

  124. Original source medium : Blu-ray


  125. Menu

  126. 00:00:00.000 : en:第 01 章

  127. 00:07:22.958 : en:第 02 章

  128. 00:14:43.083 : en:第 03 章

  129. 00:21:47.666 : en:第 04 章

  130. 00:30:42.541 : en:第 05 章

  131. 00:35:27.541 : en:第 06 章

  132. 00:44:49.958 : en:第 07 章

  133. 00:52:45.500 : en:第 08 章

  134. 00:58:07.375 : en:第 09 章

  135. 01:07:20.916 : en:第 10 章

  136. 01:14:25.541 : en:第 11 章

  137. 01:23:06.500 : en:第 12 章


文件下载


除非特别注明,本文『新喜剧之王[国粤语配音/中文字幕].The.New.King.of.Comedy.2019.1080p.BluRay.x265.10bit.DTS.2Audio 4.97GB』来源于互联网机器人自动抓取,非本站原创。 浮游电影网不对本文拥有版权,如有侵犯,请联系邮箱:fuyouu#yandex.com[#换成@]投诉。我们会在15个工作日内删除。 但烦请转载时请标明出处:“本文转载于『浮游电影网』,原文地址:https://www.fuyouu.com/14940.html

评论吧骚年!

发表你的见解   

昵称*

E-mail*(建议输入,以便收到博主回复的提示邮件)

验证码*

您可以使用eMule或eMule Mod(Windows)、aMule(Win、Linux、Mac)等软件下载eD2k链接。。
eMule收藏集(.emulecollection)文件是您选中的所有链接的列表文件。eMule可以直接下载它们。
按住SHIFT键选择可以选中多个选择框。
可用文件名和大小选择器来选择文件。
文件名选择器帮您根据文件名称或后缀来选择文件。不分大小写。
符号使用:
和:空格( )、+
不包含:-
或:|
转义:一对英文引号("");
匹配开头:^
匹配结尾:$
例如:
选中所有名称中包含有“eMule”或“0.49c”字眼,但不包含有“exe”字眼的:emule|0.49c -exe
选中所有名称的开头是“eMule”,结尾是“0.49c”的:^emule 0.49c$
选中所有名称中带有“eMule 0.49c”的(必须是“eMule 0.49c”,中间没有别的字符,不能是“eMule fake 0.49c”),需要转义:"emule 0.49c"
大小选择器帮您根据文件大小选择文件。