当前位置: 首页 >> 欧美电影 >> 不速之客[中文字幕].The.Uninvited.1944.1080p.BluRay.x265.10bit.FLAC.1.0 8.22GB >> 正文

不速之客[中文字幕].The.Uninvited.1944.1080p.BluRay.x265.10bit.FLAC.1.0 8.22GB

2021年10月14日 15:47:10     电影发布:来源于网络     电影分类:欧美电影     评论(0)    

不速之客[中文字幕].The.Uninvited.1944.1080p.BluRay.x265.10bit.FLAC.1.0 8.22GB 悬疑片 恐怖片 奇幻片 爱情片 欧美电影  第1张

◎译 名 不速之客

◎片 名 The Uninvited

◎年 代 1944

◎产 地 美国

◎类 别 爱情 / 悬疑 / 恐怖 / 奇幻

◎语 言 英语 / 西班牙语

◎上映日期 1944-02-26

◎IMDb链接 https://www.imdb.com/title/tt0037415/

◎豆瓣评分 6.6/10 (357人评价)

◎豆瓣链接 https://movie.douban.com/subject/1293857/

◎片 长 99 分钟

◎导 演 刘易斯·艾伦 Lewis Allen (id:1016836)

◎编 剧 道迪·史密斯 Dodie Smith (id:1045683)

弗兰克·帕托斯 Frank Partos (id:1011818)

◎演 员 雷·米兰德 Ray Milland (id:1014042)

露丝·赫希 Ruth Hussey (id:1044689)

唐纳德·克里斯普 Donald Crisp (id:1025345)

芭芭拉·埃弗里斯特 Barbara Everest (id:1080921)

多萝茜·斯蒂克尼 Dorothy Stickney (id:1159574)

Cornelia Otis Skinner Cornelia Otis Skinner (id:1019467)

盖尔·拉塞尔 Gail Russell (id:1049932)

◎标 签 美国 / 恐怖 / 悬疑 / CC / 1944 / 1940s / 惊悚 / 美国电影

◎简 介

一对来自伦敦的姐弟在康沃尔郡度假时买下了一座海岸悬崖上的老房子,随即发现房子受到鬼魂的骚扰。二人与原房主的孙女结识并交好,进而发现了她家族中不可告人的秘密。

《不速之客》被看作是鬼宅电影中的经典,许多电影学者认为该电影首次以严肃的态度处理了鬼怪问题。

◎获奖情况 (共1项)

第17届奥斯卡金像奖 (1945)

黑白片最佳摄影(提名)

└──查尔斯·朗 (id:1104462)

  1. ##### MediaInfo ######

  2. General

  3. Unique ID : 282156700915324394486349108335798596895 (0xD4456767F8C775024CA98876ED7F351F)

  4. Complete name : [email protected].COM.mkv

  5. Format : Matroska

  6. Format version : Version 4

  7. File size : 8.22 GiB

  8. Duration : 1 h 39 min

  9. Overall bit rate mode : Variable

  10. Overall bit rate : 11.8 Mb/s

  11. Movie name : The Uninvited

  12. Encoded date : UTC 2021-10-12 08:57:54

  13. Writing application : mkvmerge v62.0.0 ('Apollo') 64-bit

  14. Writing library : libebml v1.4.2 + libmatroska v1.6.4

  15. Cover : Yes

  16. Attachments : cover.jpg


  17. Video

  18. ID : 1

  19. Format : HEVC

  20. Format/Info : High Efficiency Video Coding

  21. Format profile : Main [email protected]@Main

  22. Codec ID : V_MPEGH/ISO/HEVC

  23. Duration : 1 h 39 min

  24. Bit rate : 11.2 Mb/s

  25. Width : 1 480 pixels

  26. Height : 1 080 pixels

  27. Display aspect ratio : 1.370

  28. Frame rate mode : Constant

  29. Frame rate : 23.976 (24000/1001/53354) FPS

  30. Color space : YUV

  31. Chroma subsampling : 4:2:0

  32. Bit depth : 10 bits

  33. Bits/(Pixel*Frame) : 0.293

  34. Stream size : 7.79 GiB (95%)

  35. Writing library : x265 3.5+2-g2b25c9ba0+45:[Windows][GCC 10.2.0][64 bit] Yuuki 10bit+8bit+12bit

  36. Encoding settings : rc=crf / crf=19.5000 / qcomp=0.70 / qpstep=4 / stats-write=0 / stats-read=0 / no-lossless / no-cu-lossless / aq-mode=3 / aq-strength=0.70 / cbqpoffs=0 / crqpoffs=0 / ipratio=1.40 / pbratio=1.30 / psy-rd=2.00 / psy-rdoq=0.00 / deblock=0:0 / ref=6 / limit-refs=1 / no-limit-modes / bframes=8 / b-adapt=2 / bframe-bias=0 / b-pyramid / b-intra / weightp / weightb / min-keyint=24 / max-keyint=240 / rc-lookahead=24 / gop-lookahead=0 / NTMzNTQ=uuDQuD2mJt9fsCf / scenecut=40 / hist-scenecut=0 / radl=0 / max-cu-size=64 / min-cu-size=8 / me=3 / subme=7 / merange=48 / rdoq-level=0 / rd=4 / rdpenalty=0 / dynamic-rd=0.00 / no-rd-refine / ----- / cutree / sao / no-rect / no-amp / no-open-gop / wpp / no-pmode / pme / no-psnr / no-ssim / nr-intra=0 / nr-inter=0 / no-constrained-intra / no-strong-intra-smoothing / max-tu-size=32 / tu-inter-depth=1 / tu-intra-depth=1 / limit-tu=0 / qg-size=32 / qpmax=69 / qpmin=0 / ----- / cpuid=533541111039 / frame-threads=4 / numa-pools=+ / log-level=2 / input-csp=1 / input-res=1480x1080 / interlace=0 / level-idc=0 / high-tier=1 / uhd-bd=0 / no-allow-non-conformance / no-repeat-headers / aud / no-hrd / info / hash=0 / no-temporal-layers / lookahead-slices=0 / no-splice / no-intra-refresh / no-ssim-rd / signhide / no-tskip / max-merge=3 / temporal-mvp / no-frame-dup / no-hme / no-analyze-src-pics / no-sao-non-deblock / selective-sao=4 / early-skip / rskip / no-fast-intra / no-tskip-fast / no-splitrd-skip / zone-count=0 / no-strict-cbr / no-rc-grain / no-const-vbv / sar=0 / overscan=0 / videoformat=5 / range=0 / colorprim=2 / transfer=2 / colormatrix=2 / chromaloc=0 / display-window=0 / cll=0,0 / min-luma=0 / max-luma=1023 / log2-max-poc-lsb=8 / vui-timing-info / vui-hrd-info / slices=1 / no-opt-qp-pps / no-opt-ref-list-length-pps / no-multi-pass-opt-rps / scenecut-bias=0.05 / hist-threshold=0.03 / no-opt-cu-delta-qp / no-aq-motion / no-hdr10 / no-hdr10-opt / no-dhdr10-opt / no-idr-recovery-sei / analysis-reuse-level=0 / analysis-save-reuse-level=0 / analysis-load-reuse-level=0 / scale-factor=0 / refine-intra=0 / refine-inter=0 / refine-mv=1 / refine-ctu-distortion=0 / no-limit-sao / ctu-info=0 / no-lowpass-dct / refine-analysis-type=0 / copy-pic=1 / max-ausize-factor=1.0 / no-dynamic-refine / no-single-sei / no-hevc-aq / no-svt / no-field / qp-adaptation-range=1.00 / scenecut-aware-qp=0conformance-window-offsets / right=0 / bottom=0 / NTMzNTQ= / decoder-max-rate=0 / no-vbv-live-multi-pass

  37. Default : Yes

  38. Forced : No


  39. Audio

  40. ID : 2

  41. Format : FLAC

  42. Format/Info : Free Lossless Audio Codec

  43. Codec ID : A_FLAC

  44. Duration : 1 h 39 min

  45. Bit rate mode : Variable

  46. Bit rate : 495 kb/s

  47. Channel(s) : 1 channel

  48. Channel layout : C

  49. Sampling rate : 48.0 kHz

  50. Frame rate : 11.719 FPS (4096 SPF)

  51. Bit depth : 24 bits

  52. Compression mode : Lossless

  53. Stream size : 352 MiB (4%)

  54. Writing library : libFLAC 1.2.1 (UTC 2007-09-17)

  55. Language : English

  56. Default : Yes

  57. Forced : No


  58. Text #1

  59. ID : 3

  60. ID in the original source medium : 4609 (0x1201)

  61. Format : PGS

  62. Muxing mode : zlib

  63. Codec ID : S_HDMV/PGS

  64. Codec ID/Info : Picture based subtitle format used on BDs/HD-DVDs

  65. Duration : 1 h 38 min

  66. Bit rate : 68.8 kb/s

  67. Count of elements : 3104

  68. Stream size : 48.5 MiB (1%)

  69. Title : chs&eng

  70. Language : Chinese

  71. Default : Yes

  72. Forced : No

  73. Original source medium : Blu-ray


  74. Text #2

  75. ID : 4

  76. ID in the original source medium : 4610 (0x1202)

  77. Format : PGS

  78. Muxing mode : zlib

  79. Codec ID : S_HDMV/PGS

  80. Codec ID/Info : Picture based subtitle format used on BDs/HD-DVDs

  81. Duration : 1 h 38 min

  82. Bit rate : 69.2 kb/s

  83. Count of elements : 3104

  84. Stream size : 48.7 MiB (1%)

  85. Title : cht&eng

  86. Language : Chinese

  87. Default : No

  88. Forced : No

  89. Original source medium : Blu-ray


  90. Text #3

  91. ID : 5

  92. ID in the original source medium : 4611 (0x1203)

  93. Format : PGS

  94. Muxing mode : zlib

  95. Codec ID : S_HDMV/PGS

  96. Codec ID/Info : Picture based subtitle format used on BDs/HD-DVDs

  97. Duration : 1 h 38 min

  98. Bit rate : 40.7 kb/s

  99. Count of elements : 3104

  100. Stream size : 28.7 MiB (0%)

  101. Title : chs

  102. Language : Chinese

  103. Default : No

  104. Forced : No

  105. Original source medium : Blu-ray


  106. Text #4

  107. ID : 6

  108. ID in the original source medium : 4612 (0x1204)

  109. Format : PGS

  110. Muxing mode : zlib

  111. Codec ID : S_HDMV/PGS

  112. Codec ID/Info : Picture based subtitle format used on BDs/HD-DVDs

  113. Duration : 1 h 38 min

  114. Bit rate : 41.1 kb/s

  115. Count of elements : 3104

  116. Stream size : 28.9 MiB (0%)

  117. Title : cht

  118. Language : Chinese

  119. Default : No

  120. Forced : No

  121. Original source medium : Blu-ray


  122. Text #5

  123. ID : 7

  124. ID in the original source medium : 4608 (0x1200)

  125. Format : PGS

  126. Muxing mode : zlib

  127. Codec ID : S_HDMV/PGS

  128. Codec ID/Info : Picture based subtitle format used on BDs/HD-DVDs

  129. Duration : 1 h 37 min

  130. Bit rate : 80.6 kb/s

  131. Count of elements : 3306

  132. Stream size : 56.2 MiB (1%)

  133. Title : eng

  134. Language : English

  135. Default : No

  136. Forced : No

  137. Original source medium : Blu-ray


  138. Menu

  139. 00:00:00.000 : en:Chapter 01

  140. 00:07:53.598 : en:Chapter 02

  141. 00:12:47.725 : en:Chapter 03

  142. 00:16:13.013 : en:Chapter 04

  143. 00:23:17.604 : en:Chapter 05

  144. 00:28:43.555 : en:Chapter 06

  145. 00:34:59.222 : en:Chapter 07

  146. 00:40:13.994 : en:Chapter 08

  147. 00:49:03.523 : en:Chapter 09

  148. 00:56:49.739 : en:Chapter 10

  149. 01:08:23.015 : en:Chapter 11

  150. 01:19:18.837 : en:Chapter 12

  151. 01:29:26.277 : en:Chapter 13


文件下载


除非特别注明,本文『不速之客[中文字幕].The.Uninvited.1944.1080p.BluRay.x265.10bit.FLAC.1.0 8.22GB』来源于互联网机器人自动抓取,非本站原创。 浮游电影网不对本文拥有版权,如有侵犯,请联系邮箱:fuyouu#yandex.com[#换成@]投诉。我们会在15个工作日内删除。 但烦请转载时请标明出处:“本文转载于『浮游电影网』,原文地址:https://www.fuyouu.com/14938.html

评论吧骚年!

发表你的见解   

昵称*

E-mail*(建议输入,以便收到博主回复的提示邮件)

验证码*

您可以使用eMule或eMule Mod(Windows)、aMule(Win、Linux、Mac)等软件下载eD2k链接。。
eMule收藏集(.emulecollection)文件是您选中的所有链接的列表文件。eMule可以直接下载它们。
按住SHIFT键选择可以选中多个选择框。
可用文件名和大小选择器来选择文件。
文件名选择器帮您根据文件名称或后缀来选择文件。不分大小写。
符号使用:
和:空格( )、+
不包含:-
或:|
转义:一对英文引号("");
匹配开头:^
匹配结尾:$
例如:
选中所有名称中包含有“eMule”或“0.49c”字眼,但不包含有“exe”字眼的:emule|0.49c -exe
选中所有名称的开头是“eMule”,结尾是“0.49c”的:^emule 0.49c$
选中所有名称中带有“eMule 0.49c”的(必须是“eMule 0.49c”,中间没有别的字符,不能是“eMule fake 0.49c”),需要转义:"emule 0.49c"
大小选择器帮您根据文件大小选择文件。