当前位置: 首页 >> 港台电影 >> 童年往事[国语音轨/繁体字幕].A.Time.to.Live.and.a.Time.to.Die.1985.BluRay.1080p.DTS-HD.MA.2.0.x265.10bit 11.10GB >> 正文

童年往事[国语音轨/繁体字幕].A.Time.to.Live.and.a.Time.to.Die.1985.BluRay.1080p.DTS-HD.MA.2.0.x265.10bit 11.10GB

2021年10月14日 15:45:14     电影发布:来源于网络     电影分类:港台电影     评论(0)    

童年往事[国语音轨/繁体字幕].A.Time.to.Live.and.a.Time.to.Die.1985.BluRay.1080p.DTS HD.MA.2.0.x265.10bit 11.10GB 家庭片 传记 剧情片 港台电影  第1张

◎译 名 童年往事 / The Time to Live and the Time to Die / A Time to Live and a Time to Die / 生死同代

◎年 代 1985

◎产 地 中国台湾

◎类 别 剧情 / 家庭 / 传记

◎语 言 汉语普通话 / 闽南语 / 客家话

◎上映日期 1985-08-03(中国台湾)

◎IMDb链接 https://www.imdb.com/title/tt0090185/

◎豆瓣评分 8.8/10 (44492人评价)

◎豆瓣链接 https://movie.douban.com/subject/1300572/

◎片 长 137分钟

◎导 演 侯孝贤 Hsiao-hsien Hou (id:1093843)

◎编 剧 朱天文 Tien-wen Chu (id:1274364)

侯孝贤 Hsiao-hsien Hou (id:1093843)

◎演 员 游安顺 An-shun Yu (id:1339114)

田丰 Feng Tien (id:1019621)

梅芳 Fang Mei (id:1324911)

唐如韫 Ruyun Tang (id:1339111)

萧艾 Ai Hsiao (id:1275727)

吴素莹 Su-Ying Wu (id:1373724)

陈淑芳 Shu-Fang Chen (id:1339273)

辛树芬 Shu-fen Hsin (id:1274698)

严圣华 Sheng-hua Yen (id:1373725)

周栋宏 Tung-hung Chou (id:1373726)

陈汉文 Han-wen Chen (id:1373727)

胡翔评 Hsiang-Ping Hu (id:1373729)

林崇文 Chung-Wen Lin (id:1373730)

高重黎 Chung-Li Kao (id:1373731)

陶德辰 Te-chen Tao (id:1352716)

陈志贞 Chi-Chen Chen (id:1373841)

江宝德 Bao-te Chiang (id:1373732)

张宁 Ning Chang (id:1373837)

罗泽中 Tse-chung Lo (id:1373838)

罗诚业 Cheng-ye Lo (id:1373734)

张家宝 Chia-bao Chang (id:1373733)

罗勋琳 Shun-lin Lo (id:1373839)

刘国宾 Kuo-bin Liu (id:1373840)

张华坤 Hwa-Kun Chang (id:1398858)

徐国良 Kuo-Liang Hsu (id:1339929)

林登飞 Dengfei Lin (id:1440158)

张弘毅 Hong-Yee Chang (id:1333814)

李屏宾 Mark Lee Ping Bing (id:1274482)

廖庆松 Ching-Song Liao (id:1312523)

林崇文 Chung-Wen Lin (id:1373730)

杜笃之 Du-Che Tu (id:1275159)

忻江盛 Chiang-Sheng Hsin (id:1377239)

蔡琴 Chin Tsai (id:1074903)

◎标 签 侯孝贤 / 台湾 / 台湾电影 / 童年往事 / 童年 / 侯孝賢 / 1985 / 成长

◎简 介

从大陆迁往台湾的一家人,在表面平静的日子下,各怀心事。祖母(唐如韫)对大陆念念不忘,一心想回去;父(田丰)母(梅芳)虽也有“外省人” 身份的尴尬,却也清楚知道回大陆只是梦一场;姐姐(萧艾)差不多已当自己是台湾本地人,偶尔伤心落泪是因想起为替父母分重担放弃了念大学;小孩子阿孝咕(游安顺),则只想着自己如何玩得痛快,完全没有大陆的概念,而对父亲的死,他只觉突然并无太多伤心。

可是因为家庭的特殊,懵懂中阿孝咕也知自己并不完全相同于同龄人。尽管表面上他做着多数成长中男孩都会做的事(四处打架、开始中意某个女孩子),内里却已埋下会突然裂变的种子,只等某个契机的来临。

◎获奖情况 (共7项)

第36届柏林国际电影节 (1986)

费比西奖(国际影评人联盟奖) 论坛及新电影论坛最佳影片

└──侯孝贤 (id:1093843)

第22届台北金马影展 (1985)

金马奖 最佳剧情片(提名)

金马奖 最佳导演(提名)

└──侯孝贤 (id:1093843)

金马奖 最佳女配角

└──唐如韫 (id:1339111)

金马奖 最佳原著剧本

金马奖 最佳原创配乐(提名)

└──吴楚楚 (id:1362047)

金马奖 最佳音效(提名)

└──忻江盛 (id:1377239)

  1. ##### MediaInfo ######

  2. General

  3. Unique ID : 312548460613265893397560707240764960994 (0xEB22A4D9097B201F4147F9BE1FFCF0E2)

  4. Complete name : A.Time.to.Live.and[email protected]BBQDDQ.COM.mkv

  5. Format : Matroska

  6. Format version : Version 4

  7. File size : 11.1 GiB

  8. Duration : 2 h 16 min

  9. Overall bit rate mode : Variable

  10. Overall bit rate : 11.6 Mb/s

  11. Encoded date : UTC 2021-10-12 14:24:20

  12. Writing application : mkvmerge v49.0.0 ('Sick Of Losing Soulmates') 64-bit

  13. Writing library : libebml v1.4.0 + libmatroska v1.6.1


  14. Video

  15. ID : 1

  16. Format : HEVC

  17. Format/Info : High Efficiency Video Coding

  18. Format profile : Main [email protected]@High

  19. Codec ID : V_MPEGH/ISO/HEVC

  20. Duration : 2 h 16 min

  21. Bit rate : 10.9 Mb/s

  22. Width : 1 920 pixels

  23. Height : 1 038 pixels

  24. Display aspect ratio : 1.85:1

  25. Frame rate mode : Constant

  26. Frame rate : 24.000 FPS

  27. Color space : YUV

  28. Chroma subsampling : 4:2:0

  29. Bit depth : 10 bits

  30. Bits/(Pixel*Frame) : 0.228

  31. Stream size : 10.4 GiB (94%)

  32. Title : HEVC, [email protected]@High, 24 fps @ 10917 kbps

  33. Writing library : x265 3.4+14-gd419c7152:[Windows][GCC 10.2.0][64 bit] 10bit

  34. Encoding settings : cpuid=533541111039 / frame-threads=4 / numa-pools=16 / wpp / pmode / pme / no-psnr / no-ssim / log-level=2 / input-csp=1 / input-res=1920x1038 / interlace=0 / total-frames=197066 / level-idc=51 / high-tier=1 / uhd-bd=0 / ref=5 / no-allow-non-conformance / no-repeat-headers / annexb / no-aud / no-hrd / info / hash=0 / no-temporal-layers / open-gop / min-keyint=24 / keyint=240 / gop-lookahead=0 / bframes=6 / b-adapt=2 / b-pyramid / bframe-bias=0 / rc-lookahead=40 / lookahead-slices=0 / NTMzNTQ=uuDQuD2mJt9fsCf / scenecut=40 / hist-scenecut=0 / radl=0 / no-splice / no-intra-refresh / ctu=32 / min-cu-size=8 / no-rect / no-amp / max-tu-size=32 / tu-inter-depth=3 / tu-intra-depth=3 / limit-tu=4 / rdoq-level=2 / dynamic-rd=0.00 / no-ssim-rd / signhide / no-tskip / nr-intra=0 / nr-inter=0 / no-constrained-intra / no-strong-intra-smoothing / max-merge=4 / limit-refs=1 / limit-modes / me=3 / subme=4 / merange=25 / temporal-mvp / no-frame-dup / no-hme / weightp / weightb / no-analyze-src-pics / deblock=-3:-3 / no-sao / no-sao-non-deblock / rd=6 / selective-sao=0 / no-early-skip / rskip / no-fast-intra / no-tskip-fast / no-cu-lossless / b-intra / no-splitrd-skip / rdpenalty=0 / psy-rd=2.00 / psy-rdoq=1.00 / no-rd-refine / no-lossless / cbqpoffs=0 / crqpoffs=0 / rc=crf / crf=17.0 / qcomp=0.65 / qpstep=4 / stats-write=0 / stats-read=0 / vbv-maxrate=80000 / vbv-bufsize=80000 / vbv-init=0.9 / crf-max=0.0 / crf-min=0.0 / ipratio=1.40 / pbratio=1.30 / aq-mode=2 / aq-strength=0.85 / cutree / zone-count=0 / no-strict-cbr / qg-size=32 / no-rc-grain / qpmax=69 / qpmin=0 / no-const-vbv / sar=1 / overscan=0 / videoformat=5 / range=0 / colorprim=1 / transfer=1 / colormatrix=1 / chromaloc=0 / display-window=0 / cll=0,0 / min-luma=0 / max-luma=1023 / log2-max-poc-lsb=8 / vui-timing-info / vui-hrd-info / slices=1 / no-opt-qp-pps / no-opt-ref-list-length-pps / no-multi-pass-opt-rps / scenecut-bias=0.05 / hist-threshold=0.03 / no-opt-cu-delta-qp / no-aq-motion / no-hdr10 / no-hdr10-opt / no-dhdr10-opt / no-idr-recovery-sei / analysis-reuse-level=0 / analysis-save-reuse-level=0 / analysis-load-reuse-level=0 / scale-factor=0 / refine-intra=0 / refine-inter=0 / refine-mv=1 / refine-ctu-distortion=0 / no-limit-sao / ctu-info=0 / no-lowpass-dct / refine-analysis-type=0 / copy-pic=1 / max-ausize-factor=1.0 / no-dynamic-refine / no-single-sei / no-hevc-aq / no-svt / no-field / qp-adaptation-range=1.00 / no-scenecut-aware-qpconformance-window-offsets / right=0 / bottom=0 / NTMzNTQ= / decoder-max-rate=0

  35. Language : English

  36. Default : Yes

  37. Forced : No

  38. Color range : Limited

  39. Color primaries : BT.709

  40. Transfer characteristics : BT.709

  41. Matrix coefficients : BT.709


  42. Audio

  43. ID : 2

  44. Format : DTS XLL

  45. Format/Info : Digital Theater Systems

  46. Commercial name : DTS-HD Master Audio

  47. Codec ID : A_DTS

  48. Duration : 2 h 16 min

  49. Bit rate mode : Variable

  50. Bit rate : 636 kb/s

  51. Channel(s) : 2 channels

  52. Channel layout : L R

  53. Sampling rate : 48.0 kHz

  54. Frame rate : 93.750 FPS (512 SPF)

  55. Bit depth : 16 bits

  56. Compression mode : Lossless

  57. Stream size : 622 MiB (5%)

  58. Title : Mandarin DTS-HD Master Audio 2.0 @ 637 kbps

  59. Language : Chinese

  60. Default : Yes

  61. Forced : No


  62. Text #1

  63. ID : 3

  64. Format : PGS

  65. Codec ID : S_HDMV/PGS

  66. Codec ID/Info : Picture based subtitle format used on BDs/HD-DVDs

  67. Duration : 2 h 14 min

  68. Bit rate : 22.3 kb/s

  69. Count of elements : 2128

  70. Stream size : 21.4 MiB (0%)

  71. Title : Cht/SUP 原盘繁体

  72. Language : Chinese

  73. Default : Yes

  74. Forced : No


  75. Text #2

  76. ID : 4

  77. Format : PGS

  78. Codec ID : S_HDMV/PGS

  79. Codec ID/Info : Picture based subtitle format used on BDs/HD-DVDs

  80. Duration : 2 h 14 min

  81. Bit rate : 34.3 kb/s

  82. Count of elements : 2128

  83. Stream size : 33.1 MiB (0%)

  84. Title : Eng/SUP

  85. Language : English

  86. Default : No

  87. Forced : No


  88. Menu

  89. 00:00:00.000 : en:第 01 章

  90. 00:22:43.083 : en:第 02 章

  91. 00:43:28.792 : en:第 03 章

  92. 01:04:26.917 : en:第 04 章

  93. 01:26:16.500 : en:第 05 章

  94. 01:49:21.000 : en:第 06 章




复制代码



文件下载


除非特别注明,本文『童年往事[国语音轨/繁体字幕].A.Time.to.Live.and.a.Time.to.Die.1985.BluRay.1080p.DTS-HD.MA.2.0.x265.10bit 11.10GB』来源于互联网机器人自动抓取,非本站原创。 浮游电影网不对本文拥有版权,如有侵犯,请联系邮箱:fuyouu#yandex.com[#换成@]投诉。我们会在15个工作日内删除。 但烦请转载时请标明出处:“本文转载于『浮游电影网』,原文地址:https://www.fuyouu.com/14937.html

评论吧骚年!

发表你的见解   

昵称*

E-mail*(建议输入,以便收到博主回复的提示邮件)

验证码*

您可以使用eMule或eMule Mod(Windows)、aMule(Win、Linux、Mac)等软件下载eD2k链接。。
eMule收藏集(.emulecollection)文件是您选中的所有链接的列表文件。eMule可以直接下载它们。
按住SHIFT键选择可以选中多个选择框。
可用文件名和大小选择器来选择文件。
文件名选择器帮您根据文件名称或后缀来选择文件。不分大小写。
符号使用:
和:空格( )、+
不包含:-
或:|
转义:一对英文引号("");
匹配开头:^
匹配结尾:$
例如:
选中所有名称中包含有“eMule”或“0.49c”字眼,但不包含有“exe”字眼的:emule|0.49c -exe
选中所有名称的开头是“eMule”,结尾是“0.49c”的:^emule 0.49c$
选中所有名称中带有“eMule 0.49c”的(必须是“eMule 0.49c”,中间没有别的字符,不能是“eMule fake 0.49c”),需要转义:"emule 0.49c"
大小选择器帮您根据文件大小选择文件。