当前位置: 首页 >> 欧美电影 >> 女巫[简繁字幕].The.Witch.2015.UHD.BluRay.2160p.DTS-HD.MA5.1.x265.10bit.HDR 17.46GB >> 正文

女巫[简繁字幕].The.Witch.2015.UHD.BluRay.2160p.DTS-HD.MA5.1.x265.10bit.HDR 17.46GB

2021年10月14日 15:41:05     电影发布:来源于网络     电影分类:欧美电影     评论(0)    

女巫[简繁字幕].The.Witch.2015.UHD.BluRay.2160p.DTS HD.MA5.1.x265.10bit.HDR 17.46GB 恐怖片 欧美电影  第1张

◎译 名 女巫 / 巫魍之灾(港) / 女巫:新英格兰的传说 / The Witch / The VVitch

◎片 名 The VVitch: A New-England Folktale

◎年 代 2015

◎产 地 美国 / 英国 / 加拿大 / 巴西

◎类 别 恐怖

◎语 言 英语

◎上映日期 2015-10-12(伦敦电影节) / 2016-02-19(美国)

◎IMDb链接 https://www.imdb.com/title/tt4263482/

◎豆瓣评分 7.0/10 (28885人评价)

◎豆瓣链接 https://movie.douban.com/subject/26276364/

◎片 长 92分钟

◎导 演 罗伯特·艾格斯 Robert Eggers (id:1351393)

◎编 剧 罗伯特·艾格斯 Robert Eggers (id:1351393)

◎演 员 安雅·泰勒-乔伊 Anya Taylor-Joy (id:1354934)

拉尔夫·伊内森 Ralph Ineson (id:1108378)

凯特·迪基 Kate Dickie (id:1282399)

哈维·斯克林肖 Harvey Scrimshaw (id:1354935)

艾丽·格兰杰 Ellie Grainger (id:1354936)

卢卡斯·道森 Lucas Dawson (id:1354937)

朱利安·瑞钦斯 Julian Richings (id:1147415)

芭丝谢芭·加内特 Bathsheba Garnett (id:1354938)

莎拉·史蒂文森 Sarah Stephens (id:1354939)

丹尼尔·马力克 Daniel Malik (id:1354940)

德里克·赫德 Derek Herd (id:1426397)

薇芙·摩尔 Viv Moore (id:1426404)

克里斯·哥伦布 Chris Columbus (id:1049716)

露易丝·福特 Louise Ford (id:1450155)

薇芙·摩尔 Viv Moore (id:1426404)

◎标 签 恐怖 / 宗教 / 惊悚 / 美国 / 女巫 / 悬疑 / 灵异 / 2016

◎简 介

故事发生在17世纪30年代的新英格兰,由于无法苟同教会的做法,虔诚的清教徒威廉(拉尔夫·尹爱森 Ralph Ineson 饰)遭到种植园的驱逐,被迫带着妻子凯瑟琳(凯特·迪基 Kate Dickie 饰)和一众儿女远迁来到一处荒芜所在。他们白手起家,历经艰辛,而尚在襁褓 中的儿子意外失踪则令一家人的心头蒙上挥之不去的阴影。天气恶劣,作物歉收,夫妻二人的关系陷入紧张,凯瑟琳心念下落不明的孩子,精神近于崩溃。在此期间,自感对孩子失踪负有主要责任的长女托马辛(安雅·泰勒-乔伊 Anya Taylor-Joy 饰)心情沉重,此后不久,大弟凯勒布(哈维·斯克林肖 Harvey Scrimshaw 饰)在丛林深处遭遇女巫,心智错乱。

一家人的生活彻底陷入混乱,他们能否在信仰中得到救赎?

◎获奖情况 (共13项)

第31届圣丹斯电影节 (2015)

评审团大奖 剧情片(提名)

└──罗伯特·艾格斯 (id:1351393)

第22届美国评论家选择电影奖 (2017)

最佳科幻/恐怖片(提名)

第32届美国独立精神奖 (2017)

最佳处女作

└──罗伯特·艾格斯 (id:1351393)

最佳处女作剧本

└──罗伯特·艾格斯 (id:1351393)

第26届哥谭独立电影奖 (2016)

年度突破演员

└──安雅·泰勒-乔伊 (id:1354934)

最佳突破导演奖(提名)

└──罗伯特·艾格斯 (id:1351393)

第15届华盛顿影评人协会奖 (2016)

最佳青少年表演(提名)

└──安雅·泰勒-乔伊 (id:1354934)

最佳艺术指导(提名)

第37届波士顿影评人协会奖 (2016)

最佳处女作

└──罗伯特·艾格斯 (id:1351393)

第29届芝加哥影评人协会奖 (2016)

最佳艺术指导(提名)

最具潜力导演

└──罗伯特·艾格斯 (id:1351393)

第20届美国在线影评人协会奖 (2017)

最佳影片(提名)

第3届豆瓣电影年度榜单 (2016)

评分最高的恐怖片(提名)

  1. ##### MediaInfo ######

  2. General

  3. Unique ID : 62250947843970041143119989896967379098 (0x2ED518B112ADB7517C57795ADBDC589A)

  4. Complete name : Th[email protected]BBQDDQ.COM.mkv

  5. Format : Matroska

  6. Format version : Version 4

  7. File size : 17.5 GiB

  8. Duration : 1 h 32 min

  9. Overall bit rate mode : Variable

  10. Overall bit rate : 27.1 Mb/s

  11. Encoded date : UTC 2021-10-12 12:37:35

  12. Writing application : mkvmerge v49.0.0 ('Sick Of Losing Soulmates') 64-bit

  13. Writing library : libebml v1.4.0 + libmatroska v1.6.1


  14. Video

  15. ID : 1

  16. Format : HEVC

  17. Format/Info : High Efficiency Video Coding

  18. Format profile : Main [email protected]@High

  19. HDR format : SMPTE ST 2086, HDR10 compatible

  20. Codec ID : V_MPEGH/ISO/HEVC

  21. Duration : 1 h 32 min

  22. Bit rate : 22.8 Mb/s

  23. Width : 3 600 pixels

  24. Height : 2 160 pixels

  25. Display aspect ratio : 5:3

  26. Frame rate mode : Constant

  27. Frame rate : 23.976 (24000/1001/53354) FPS

  28. Color space : YUV

  29. Chroma subsampling : 4:2:0 (Type 2)

  30. Bit depth : 10 bits

  31. Bits/(Pixel*Frame) : 0.122

  32. Stream size : 14.7 GiB (84%)

  33. Title : HEVC, [email protected]@High, 24/1.001 fps @ 22815 kbps

  34. Writing library : x265 3.4+14-gd419c7152:[Windows][GCC 10.2.0][64 bit] 10bit

  35. Encoding settings : cpuid=533541111039 / frame-threads=4 / numa-pools=20 / wpp / pmode / pme / no-psnr / no-ssim / log-level=2 / input-csp=1 / input-res=3600x2160 / interlace=0 / total-frames=132768 / level-idc=51 / high-tier=1 / uhd-bd=0 / ref=4 / no-allow-non-conformance / repeat-headers / annexb / no-aud / hrd / info / hash=0 / no-temporal-layers / no-open-gop / min-keyint=24 / keyint=240 / gop-lookahead=0 / bframes=8 / b-adapt=2 / b-pyramid / bframe-bias=0 / rc-lookahead=25 / lookahead-slices=0 / NTMzNTQ=uuDQuD2mJt9fsCf / scenecut=40 / hist-scenecut=0 / radl=0 / no-splice / no-intra-refresh / ctu=64 / min-cu-size=8 / no-rect / no-amp / max-tu-size=32 / tu-inter-depth=3 / tu-intra-depth=3 / limit-tu=4 / rdoq-level=2 / dynamic-rd=0.00 / no-ssim-rd / signhide / no-tskip / nr-intra=0 / nr-inter=0 / no-constrained-intra / no-strong-intra-smoothing / max-merge=4 / limit-refs=1 / limit-modes / me=3 / subme=4 / merange=25 / temporal-mvp / no-frame-dup / no-hme / weightp / weightb / no-analyze-src-pics / deblock=-3:-3 / no-sao / no-sao-non-deblock / rd=6 / selective-sao=0 / no-early-skip / rskip / no-fast-intra / no-tskip-fast / no-cu-lossless / b-intra / no-splitrd-skip / rdpenalty=0 / psy-rd=2.00 / psy-rdoq=1.00 / no-rd-refine / no-lossless / cbqpoffs=0 / crqpoffs=0 / rc=crf / crf=17.0 / qcomp=0.65 / qpstep=4 / stats-write=0 / stats-read=0 / vbv-maxrate=160000 / vbv-bufsize=160000 / vbv-init=0.9 / crf-max=0.0 / crf-min=0.0 / ipratio=1.30 / pbratio=1.20 / aq-mode=3 / aq-strength=0.85 / cutree / zone-count=0 / no-strict-cbr / qg-size=32 / no-rc-grain / qpmax=69 / qpmin=0 / no-const-vbv / sar=1 / overscan=0 / videoformat=5 / range=0 / colorprim=9 / transfer=16 / colormatrix=9 / chromaloc=1 / chromaloc-top=2 / chromaloc-bottom=2 / display-window=0 / master-display=G(13250,34500)B(7500,3000)R(34000,16000)WP(15635,16450)L(10000000,10) / cll=347,50 / min-luma=0 / max-luma=1023 / log2-max-poc-lsb=8 / vui-timing-info / vui-hrd-info / slices=1 / no-opt-qp-pps / no-opt-ref-list-length-pps / no-multi-pass-opt-rps / scenecut-bias=0.05 / hist-threshold=0.03 / no-opt-cu-delta-qp / no-aq-motion / hdr10 / hdr10-opt / no-dhdr10-opt / no-idr-recovery-sei / analysis-reuse-level=0 / analysis-save-reuse-level=0 / analysis-load-reuse-level=0 / scale-factor=0 / refine-intra=0 / refine-inter=0 / refine-mv=1 / refine-ctu-distortion=0 / no-limit-sao / ctu-info=0 / no-lowpass-dct / refine-analysis-type=0 / copy-pic=1 / max-ausize-factor=1.0 / no-dynamic-refine / no-single-sei / no-hevc-aq / no-svt / no-field / qp-adaptation-range=1.00 / no-scenecut-aware-qpconformance-window-offsets / right=0 / bottom=0 / NTMzNTQ= / decoder-max-rate=0

  36. Language : English

  37. Default : Yes

  38. Forced : No

  39. Color range : Limited

  40. Color primaries : BT.2020

  41. Transfer characteristics : PQ

  42. Matrix coefficients : BT.2020 non-constant

  43. Mastering display color primaries : Display P3

  44. Mastering display luminance : min: 0.0010 cd/m2, max: 1000 cd/m2

  45. Maximum Content Light Level : 347 cd/m2

  46. Maximum Frame-Average Light Level : 50 cd/m2


  47. Audio #1

  48. ID : 2

  49. Format : DTS XLL

  50. Format/Info : Digital Theater Systems

  51. Commercial name : DTS-HD Master Audio

  52. Codec ID : A_DTS

  53. Duration : 1 h 32 min

  54. Bit rate mode : Variable

  55. Bit rate : 3 415 kb/s

  56. Channel(s) : 6 channels

  57. Channel layout : C L R Ls Rs LFE

  58. Sampling rate : 48.0 kHz

  59. Frame rate : 93.750 FPS (512 SPF)

  60. Bit depth : 24 bits

  61. Compression mode : Lossless

  62. Stream size : 2.20 GiB (13%)

  63. Title : English DTS-HD Master Audio 5.1 @ 3415 kbps

  64. Language : English

  65. Default : Yes

  66. Forced : No


  67. Audio #2

  68. ID : 3

  69. Format : AC-3

  70. Format/Info : Audio Coding 3

  71. Commercial name : Dolby Digital

  72. Codec ID : A_AC3

  73. Duration : 1 h 32 min

  74. Bit rate mode : Constant

  75. Bit rate : 224 kb/s

  76. Channel(s) : 2 channels

  77. Channel layout : L R

  78. Sampling rate : 48.0 kHz

  79. Frame rate : 31.250 FPS (1536 SPF)

  80. Compression mode : Lossy

  81. Stream size : 148 MiB (1%)

  82. Title : English Dolby Digital Audio 2.0 @ 224 kbps Commentary

  83. Language : English

  84. Service kind : Complete Main

  85. Default : No

  86. Forced : No


  87. Text #1

  88. ID : 4

  89. Format : PGS

  90. Codec ID : S_HDMV/PGS

  91. Codec ID/Info : Picture based subtitle format used on BDs/HD-DVDs

  92. Duration : 1 h 27 min

  93. Bit rate : 626 kb/s

  94. Count of elements : 19666

  95. Stream size : 391 MiB (2%)

  96. Title : Eng/SUP

  97. Language : English

  98. Default : No

  99. Forced : No


  100. Text #2

  101. ID : 5

  102. Format : PGS

  103. Codec ID : S_HDMV/PGS

  104. Codec ID/Info : Picture based subtitle format used on BDs/HD-DVDs

  105. Duration : 1 h 31 min

  106. Bit rate : 13.7 kb/s

  107. Count of elements : 1766

  108. Stream size : 8.90 MiB (0%)

  109. Title : Chs/SUP 简体

  110. Language : Chinese

  111. Default : Yes

  112. Forced : No


  113. Text #3

  114. ID : 6

  115. Format : PGS

  116. Codec ID : S_HDMV/PGS

  117. Codec ID/Info : Picture based subtitle format used on BDs/HD-DVDs

  118. Duration : 1 h 31 min

  119. Bit rate : 13.7 kb/s

  120. Count of elements : 1766

  121. Stream size : 8.96 MiB (0%)

  122. Title : Cht/SUP 繁体

  123. Language : Chinese

  124. Default : No

  125. Forced : No


  126. Menu

  127. 00:00:00.000 : en:第 01 章

  128. 00:04:44.159 : en:第 02 章

  129. 00:13:12.333 : en:第 03 章

  130. 00:18:51.672 : en:第 04 章

  131. 00:26:40.432 : en:第 05 章

  132. 00:29:47.869 : en:第 06 章

  133. 00:37:11.146 : en:第 07 章

  134. 00:42:09.068 : en:第 08 章

  135. 00:48:23.609 : en:第 09 章

  136. 00:53:23.867 : en:第 10 章

  137. 01:00:36.049 : en:第 11 章

  138. 01:04:13.558 : en:第 12 章

  139. 01:10:27.432 : en:第 13 章

  140. 01:13:55.431 : en:第 14 章

  141. 01:20:42.046 : en:第 15 章

  142. 01:25:14.901 : en:第 16 章




复制代码



文件下载


除非特别注明,本文『女巫[简繁字幕].The.Witch.2015.UHD.BluRay.2160p.DTS-HD.MA5.1.x265.10bit.HDR 17.46GB』来源于互联网机器人自动抓取,非本站原创。 浮游电影网不对本文拥有版权,如有侵犯,请联系邮箱:fuyouu#yandex.com[#换成@]投诉。我们会在15个工作日内删除。 但烦请转载时请标明出处:“本文转载于『浮游电影网』,原文地址:https://www.fuyouu.com/14934.html

评论吧骚年!

发表你的见解   

昵称*

E-mail*(建议输入,以便收到博主回复的提示邮件)

验证码*

您可以使用eMule或eMule Mod(Windows)、aMule(Win、Linux、Mac)等软件下载eD2k链接。。
eMule收藏集(.emulecollection)文件是您选中的所有链接的列表文件。eMule可以直接下载它们。
按住SHIFT键选择可以选中多个选择框。
可用文件名和大小选择器来选择文件。
文件名选择器帮您根据文件名称或后缀来选择文件。不分大小写。
符号使用:
和:空格( )、+
不包含:-
或:|
转义:一对英文引号("");
匹配开头:^
匹配结尾:$
例如:
选中所有名称中包含有“eMule”或“0.49c”字眼,但不包含有“exe”字眼的:emule|0.49c -exe
选中所有名称的开头是“eMule”,结尾是“0.49c”的:^emule 0.49c$
选中所有名称中带有“eMule 0.49c”的(必须是“eMule 0.49c”,中间没有别的字符,不能是“eMule fake 0.49c”),需要转义:"emule 0.49c"
大小选择器帮您根据文件大小选择文件。