当前位置: 首页 >> 港台电影 >> 妈妈的神奇小子[国语配音/中文字幕].Zero.to.Hero.2021.2160p.WEB-DL.H265.DDP5.1.2Audio 3.49GB >> 正文

妈妈的神奇小子[国语配音/中文字幕].Zero.to.Hero.2021.2160p.WEB-DL.H265.DDP5.1.2Audio 3.49GB

2021年10月14日 15:39:43     电影发布:来源于网络     电影分类:港台电影     评论(0)    

妈妈的神奇小子[国语配音/中文字幕].Zero.to.Hero.2021.2160p.WEB DL.H265.DDP5.1.2Audio 3.49GB 运动 传记 剧情片 港台电影  第1张

◎译 名 妈妈的神奇小子 / On Your Mom, Get Set, Go! / Zero to Hero

◎片 名 媽媽的神奇小子

◎年 代 2021

◎产 地 中国香港 / 中国大陆

◎类 别 剧情 / 传记 / 运动

◎语 言 粤语 / 汉语普通话

◎上映日期 2021-09-04(中国大陆) / 2021-08-12(中国香港)

◎IMDb链接 https://www.imdb.com/title/tt14892216/

◎豆瓣评分 7.2/10 (5780人评价)

◎豆瓣链接 https://movie.douban.com/subject/32568661/

◎片 长 102分钟(中国大陆)

◎导 演 尹志文 Jimmy Wan (id:1275149)

◎编 剧 尹志文 Jimmy Wan (id:1275149)

卢文骏 (id:1461338)

◎演 员 吴君如 Sandra Ng (id:1127819)

张继聪 Louis Cheung (id:1316230)

梁仲恒 Leung Chun Hang (id:1428364)

胡子彤 Tony Tsz-Tung Wu (id:1362877)

卢海鹏 Hoi-Pang Lo (id:1038772)

钱小豪 Siu-hou Chin (id:1005415)

杨伟伦 Alan Yeung (id:1418900)

冯皓扬 Mason Fung (id:1461569)

林家熙 Lam ka hel (id:1381509)

吴肇轩 Kenneth Woo (id:1353200)

陆永 Wing-kuen Luk (id:1275662)

钟雪莹 Chung Said (id:1418621)

苏桦伟 So Wa Wai (id:1461230)

麦沛东 (id:1462570)

吴君如 Sandra Ng (id:1127819)

戴伟 Day Tai (id:1337786)

彭正熙 Curran Pang (id:1305790)

吴里璐 Dora Ng (id:1289270)

何文植 Jack Ho (id:1330698)

◎标 签 励志 / 香港 / 真实事件改编 / 体育 / 母爱 / 运动 / 家庭 / 亲情

◎简 介

电影根据残奥冠军苏桦伟真人真事改编。苏桦伟生来因黄疸病导致脑痉挛,无法正常站立行走。而苏妈(吴君如 饰)没有放弃,不仅帮助儿子站了起来,还发掘了他的跑步天赋,直到苏桦伟被残障田径队选中,夺得残奥会冠军并打破世界纪录,这对神奇母子的热血励志传奇开始家喻户晓。

  1. ##### MediaInfo ######

  2. General

  3. Unique ID : 30725125627180726773729968835984842411 (0x171D71A6A504150A9A39A93C64AF5EAB)

  4. Complete name : [email protected]OM.mkv

  5. Format : Matroska

  6. Format version : Version 4

  7. File size : 3.49 GiB

  8. Duration : 1 h 42 min

  9. Overall bit rate : 4 865 kb/s

  10. Encoded date : UTC 2021-10-12 13:13:52

  11. Writing application : mkvmerge v50.0.0 ('Awakenings') 64-bit

  12. Writing library : libebml v1.4.0 + libmatroska v1.6.2


  13. Video

  14. ID : 1

  15. Format : HEVC

  16. Format/Info : High Efficiency Video Coding

  17. Format profile : [email protected]@Main

  18. Codec ID : V_MPEGH/ISO/HEVC

  19. Duration : 1 h 42 min

  20. Bit rate : 4 160 kb/s

  21. Width : 3 840 pixels

  22. Height : 1 600 pixels

  23. Display aspect ratio : 2.40:1

  24. Frame rate mode : Constant

  25. Frame rate : 24.000 FPS

  26. Color space : YUV

  27. Chroma subsampling : 4:2:0

  28. Bit depth : 8 bits

  29. Bits/(Pixel*Frame) : 0.028

  30. Stream size : 2.98 GiB (86%)

  31. Default : Yes

  32. Forced : No


  33. Audio #1

  34. ID : 2

  35. Format : E-AC-3

  36. Format/Info : Enhanced AC-3

  37. Commercial name : Dolby Digital Plus

  38. Codec ID : A_EAC3

  39. Duration : 1 h 42 min

  40. Bit rate mode : Constant

  41. Bit rate : 256 kb/s

  42. Channel(s) : 6 channels

  43. Channel layout : L R C LFE Ls Rs

  44. Sampling rate : 48.0 kHz

  45. Frame rate : 31.250 FPS (1536 SPF)

  46. Compression mode : Lossy

  47. Stream size : 188 MiB (5%)

  48. Title : Mandarin

  49. Language : Chinese

  50. Service kind : Complete Main

  51. Default : Yes

  52. Forced : No


  53. Audio #2

  54. ID : 3

  55. Format : E-AC-3

  56. Format/Info : Enhanced AC-3

  57. Commercial name : Dolby Digital Plus

  58. Codec ID : A_EAC3

  59. Duration : 1 h 42 min

  60. Bit rate mode : Constant

  61. Bit rate : 256 kb/s

  62. Channel(s) : 6 channels

  63. Channel layout : L R C LFE Ls Rs

  64. Sampling rate : 48.0 kHz

  65. Frame rate : 31.250 FPS (1536 SPF)

  66. Compression mode : Lossy

  67. Stream size : 188 MiB (5%)

  68. Title : Cantonese

  69. Language : Chinese

  70. Service kind : Complete Main

  71. Default : No

  72. Forced : No


  73. Audio #3

  74. ID : 4

  75. Format : AAC LC

  76. Format/Info : Advanced Audio Codec Low Complexity

  77. Codec ID : A_AAC-2

  78. Duration : 1 h 42 min

  79. Bit rate : 192 kb/s

  80. Channel(s) : 2 channels

  81. Channel layout : L R

  82. Sampling rate : 44.1 kHz

  83. Frame rate : 43.066 FPS (1024 SPF)

  84. Compression mode : Lossy

  85. Stream size : 139 MiB (4%)

  86. Title : Mandarin

  87. Language : Chinese

  88. Default : No

  89. Forced : No




复制代码



文件下载


除非特别注明,本文『妈妈的神奇小子[国语配音/中文字幕].Zero.to.Hero.2021.2160p.WEB-DL.H265.DDP5.1.2Audio 3.49GB』来源于互联网机器人自动抓取,非本站原创。 浮游电影网不对本文拥有版权,如有侵犯,请联系邮箱:fuyouu#yandex.com[#换成@]投诉。我们会在15个工作日内删除。 但烦请转载时请标明出处:“本文转载于『浮游电影网』,原文地址:https://www.fuyouu.com/14933.html

评论吧骚年!

发表你的见解   

昵称*

E-mail*(建议输入,以便收到博主回复的提示邮件)

验证码*

您可以使用eMule或eMule Mod(Windows)、aMule(Win、Linux、Mac)等软件下载eD2k链接。。
eMule收藏集(.emulecollection)文件是您选中的所有链接的列表文件。eMule可以直接下载它们。
按住SHIFT键选择可以选中多个选择框。
可用文件名和大小选择器来选择文件。
文件名选择器帮您根据文件名称或后缀来选择文件。不分大小写。
符号使用:
和:空格( )、+
不包含:-
或:|
转义:一对英文引号("");
匹配开头:^
匹配结尾:$
例如:
选中所有名称中包含有“eMule”或“0.49c”字眼,但不包含有“exe”字眼的:emule|0.49c -exe
选中所有名称的开头是“eMule”,结尾是“0.49c”的:^emule 0.49c$
选中所有名称中带有“eMule 0.49c”的(必须是“eMule 0.49c”,中间没有别的字符,不能是“eMule fake 0.49c”),需要转义:"emule 0.49c"
大小选择器帮您根据文件大小选择文件。