当前位置: 首页 >> 海外电影 >> 女狙击手[中文字幕/特效字幕].Battle.for.Sevastopol.2015.BluRay.1080p.DTS-HD.MA.5.1.x265.10bit 8.41GB >> 正文

女狙击手[中文字幕/特效字幕].Battle.for.Sevastopol.2015.BluRay.1080p.DTS-HD.MA.5.1.x265.10bit 8.41GB

2021年10月13日 12:54:52     电影发布:来源于网络     电影分类:海外电影     评论(0)    

女狙击手[中文字幕/特效字幕].Battle.for.Sevastopol.2015.BluRay.1080p.DTS HD.MA.5.1.x265.10bit 8.41GB 战争片 传记 爱情片 剧情片 海外电影  第1张

◎译 名 女狙击手 / 狙击309(港) / 塞瓦斯托波尔战 / 塞瓦斯托波尔保卫战 / Bitva za Sevastopol / Battle for Sevastopol

◎片 名 Битва за Севастополь

◎年 代 2015

◎产 地 俄罗斯 / 乌克兰

◎类 别 剧情 / 爱情 / 传记 / 战争

◎语 言 俄语

◎上映日期 2015-04-02(乌克兰/俄罗斯)

◎IMDb链接 https://www.imdb.com/title/tt4084744/

◎豆瓣评分 7.6/10 (22384人评价)

◎豆瓣链接 https://movie.douban.com/subject/26356495/

◎片 长 117分钟

◎导 演 谢尔盖·马克利斯基 Sergey Mokritskiy (id:1365062)

◎编 剧 马克西姆·布达拉 Maxim Budarin (id:1349846)

◎演 员 尤利娅·别列希尔德 Yuliya Peresild (id:1315739)

叶甫盖尼·齐加诺夫 Yevgeni Tsyganov (id:1032922)

阿纳托利·科特 Anatoliy Kot (id:1333214)

奥列格·瓦西里科夫 oleg vasilkov (id:1349823)

尼基塔·塔拉索夫 Nikita Tarasov (id:1364958)

塞巴斯蒂安·安东 Sebastian Anton (id:1348766)

瓦伦缇娜·波波瓦 Valentina Popova (id:1425997)

罗马·利斯托帕德 Roman Listopad (id:1424792)

谢尔盖·普斯科帕里斯 Sergei Puskepalis (id:1001522)

萨沙·沙图里亚 Zaza Chanturiya (id:1436693)

尤金·加尔佩里尼 Evgueni Galperine (id:1334068)

◎标 签 战争 / 俄罗斯 / 二战 / 女性 / 军事 / 爱情 / 传记 / 剧情

◎简 介

苏联女学生柳德米拉·帕夫利琴科在一次射击游戏中无意间发现了自己的射击天赋,1941年她不顾家人反对毅然参军。帕夫利琴科成长为全苏联最出色的狙击手,同时她被德军视为不惜一切代价也要除掉的巨大的威胁。柳德米拉遇到一名男子并坠入爱河。然而,好景不长,战争过去,厄运却再次降临……

◎获奖情况 (共1项)

第5届北京国际电影节 (2015)

天坛奖 最佳女主角奖

└──尤利娅·别列希尔德 (id:1315739)

  1. ##### MediaInfo ######

  2. General

  3. Unique ID : 241981131651272966223154086965324207731 (0xB60BDEE8F926CE2D57D07E09F886D673)

  4. Complete name : Battle.[email protected]BBQDDQ.COM.mkv

  5. Format : Matroska

  6. Format version : Version 4

  7. File size : 8.41 GiB

  8. Duration : 2 h 2 min

  9. Overall bit rate mode : Variable

  10. Overall bit rate : 9 796 kb/s

  11. Encoded date : UTC 2021-10-11 08:07:31

  12. Writing application : mkvmerge v60.0.0 ('Are We Copies?') 64-bit

  13. Writing library : libebml v1.4.2 + libmatroska v1.6.4


  14. Video

  15. ID : 1

  16. Format : HEVC

  17. Format/Info : High Efficiency Video Coding

  18. Format profile : Main [email protected]@Main

  19. Codec ID : V_MPEGH/ISO/HEVC

  20. Duration : 2 h 2 min

  21. Bit rate : 5 558 kb/s

  22. Width : 1 920 pixels

  23. Height : 800 pixels

  24. Display aspect ratio : 2.40:1

  25. Frame rate mode : Constant

  26. Frame rate : 24.000 FPS

  27. Color space : YUV

  28. Chroma subsampling : 4:2:0

  29. Bit depth : 10 bits

  30. Bits/(Pixel*Frame) : 0.151

  31. Stream size : 4.77 GiB (57%)

  32. Writing library : x265 3.5+11-c8905a745:[Windows][MSVC 1929][64 bit] 10bit

  33. Encoding settings : cpuid=533541111039 / frame-threads=4 / numa-pools=16 / wpp / no-pmode / pme / no-psnr / no-ssim / log-level=2 / input-csp=1 / input-res=1920x800 / interlace=0 / total-frames=0 / level-idc=0 / high-tier=1 / uhd-bd=0 / ref=6 / no-allow-non-conformance / repeat-headers / annexb / no-aud / no-eob / no-eos / no-hrd / info / hash=0 / no-temporal-layers / no-open-gop / min-keyint=24 / keyint=250 / gop-lookahead=0 / bframes=8 / b-adapt=2 / b-pyramid / bframe-bias=0 / rc-lookahead=57 / lookahead-slices=5 / NTMzNTQ=uuDQuD2mJt9fsCf / scenecut=40 / no-hist-scenecut / radl=0 / no-splice / no-intra-refresh / ctu=64 / min-cu-size=8 / no-rect / no-amp / max-tu-size=32 / tu-inter-depth=1 / tu-intra-depth=1 / limit-tu=0 / rdoq-level=0 / dynamic-rd=0.00 / no-ssim-rd / signhide / no-tskip / nr-intra=0 / nr-inter=0 / no-constrained-intra / no-strong-intra-smoothing / max-merge=3 / limit-refs=1 / no-limit-modes / me=2 / subme=7 / merange=57 / temporal-mvp / no-frame-dup / no-hme / weightp / weightb / no-analyze-src-pics / deblock=0:0 / sao / no-sao-non-deblock / rd=4 / selective-sao=4 / early-skip / rskip / no-fast-intra / no-tskip-fast / no-cu-lossless / b-intra / no-splitrd-skip / rdpenalty=0 / psy-rd=2.00 / psy-rdoq=0.00 / no-rd-refine / no-lossless / cbqpoffs=0 / crqpoffs=0 / rc=crf / crf=16.0 / qcomp=0.60 / qpstep=4 / stats-write=0 / stats-read=0 / ipratio=1.40 / pbratio=1.30 / aq-mode=3 / aq-strength=1.00 / cutree / zone-count=0 / no-strict-cbr / qg-size=32 / no-rc-grain / qpmax=69 / qpmin=0 / no-const-vbv / sar=0 / overscan=0 / videoformat=5 / range=0 / colorprim=2 / transfer=2 / colormatrix=2 / chromaloc=0 / display-window=0 / cll=0,0 / min-luma=0 / max-luma=1023 / log2-max-poc-lsb=8 / vui-timing-info / vui-hrd-info / slices=1 / no-opt-qp-pps / no-opt-ref-list-length-pps / no-multi-pass-opt-rps / scenecut-bias=0.05 / hist-threshold=0.03 / no-opt-cu-delta-qp / aq-motion / no-hdr10 / no-hdr10-opt / no-dhdr10-opt / no-idr-recovery-sei / analysis-reuse-level=0 / analysis-save-reuse-level=0 / analysis-load-reuse-level=0 / scale-factor=0 / refine-intra=0 / refine-inter=0 / refine-mv=1 / refine-ctu-distortion=0 / no-limit-sao / ctu-info=0 / no-lowpass-dct / refine-analysis-type=0 / copy-pic=1 / max-ausize-factor=1.0 / no-dynamic-refine / no-single-sei / no-hevc-aq / no-svt / no-field / qp-adaptation-range=1.00 / scenecut-aware-qp=0conformance-window-offsets / right=0 / bottom=0 / NTMzNTQ= / decoder-max-rate=0 / no-vbv-live-multi-pass

  34. Default : Yes

  35. Forced : No


  36. Audio

  37. ID : 2

  38. Format : DTS XLL

  39. Format/Info : Digital Theater Systems

  40. Commercial name : DTS-HD Master Audio

  41. Codec ID : A_DTS

  42. Duration : 2 h 2 min

  43. Bit rate mode : Variable

  44. Bit rate : 4 187 kb/s

  45. Channel(s) : 6 channels

  46. Channel layout : C L R Ls Rs LFE

  47. Sampling rate : 48.0 kHz

  48. Frame rate : 93.750 FPS (512 SPF)

  49. Bit depth : 24 bits

  50. Compression mode : Lossless

  51. Stream size : 3.59 GiB (43%)

  52. Default : Yes

  53. Forced : No


  54. Text #1

  55. ID : 3

  56. Format : PGS

  57. Muxing mode : zlib

  58. Codec ID : S_HDMV/PGS

  59. Codec ID/Info : Picture based subtitle format used on BDs/HD-DVDs

  60. Duration : 1 h 57 min

  61. Bit rate : 4 680 b/s

  62. Count of elements : 372

  63. Stream size : 3.93 MiB (0%)

  64. Title : 俄语

  65. Language : Russian

  66. Default : Yes

  67. Forced : No


  68. Text #2

  69. ID : 4

  70. Format : PGS

  71. Muxing mode : zlib

  72. Codec ID : S_HDMV/PGS

  73. Codec ID/Info : Picture based subtitle format used on BDs/HD-DVDs

  74. Duration : 2 h 0 min

  75. Bit rate : 46.8 kb/s

  76. Count of elements : 4369

  77. Stream size : 40.3 MiB (0%)

  78. Title : 简体特效

  79. Language : Chinese

  80. Default : Yes

  81. Forced : No


  82. Text #3

  83. ID : 5

  84. Format : PGS

  85. Muxing mode : zlib

  86. Codec ID : S_HDMV/PGS

  87. Codec ID/Info : Picture based subtitle format used on BDs/HD-DVDs

  88. Duration : 2 h 0 min

  89. Bit rate : 47.0 kb/s

  90. Count of elements : 4341

  91. Stream size : 40.5 MiB (0%)

  92. Title : 繁体特效

  93. Language : Chinese

  94. Default : Yes

  95. Forced : No


  96. Menu

  97. 00:00:00.000 : :第 01 章

  98. 00:10:08.917 : :第 02 章

  99. 00:18:13.333 : :第 03 章

  100. 00:26:37.250 : :第 04 章

  101. 00:36:05.375 : :第 05 章

  102. 00:46:11.167 : :第 06 章

  103. 00:53:33.792 : :第 07 章

  104. 01:02:41.417 : :第 08 章

  105. 01:13:43.958 : :第 09 章

  106. 01:21:31.208 : :第 10 章

  107. 01:30:22.625 : :第 11 章

  108. 01:43:18.333 : :第 12 章

  109. 01:59:19.875 : :第 13 章




复制代码



文件下载


除非特别注明,本文『女狙击手[中文字幕/特效字幕].Battle.for.Sevastopol.2015.BluRay.1080p.DTS-HD.MA.5.1.x265.10bit 8.41GB』来源于互联网机器人自动抓取,非本站原创。 浮游电影网不对本文拥有版权,如有侵犯,请联系邮箱:fuyouu#yandex.com[#换成@]投诉。我们会在15个工作日内删除。 但烦请转载时请标明出处:“本文转载于『浮游电影网』,原文地址:https://www.fuyouu.com/14923.html

评论吧骚年!

发表你的见解   

昵称*

E-mail*(建议输入,以便收到博主回复的提示邮件)

验证码*

您可以使用eMule或eMule Mod(Windows)、aMule(Win、Linux、Mac)等软件下载eD2k链接。。
eMule收藏集(.emulecollection)文件是您选中的所有链接的列表文件。eMule可以直接下载它们。
按住SHIFT键选择可以选中多个选择框。
可用文件名和大小选择器来选择文件。
文件名选择器帮您根据文件名称或后缀来选择文件。不分大小写。
符号使用:
和:空格( )、+
不包含:-
或:|
转义:一对英文引号("");
匹配开头:^
匹配结尾:$
例如:
选中所有名称中包含有“eMule”或“0.49c”字眼,但不包含有“exe”字眼的:emule|0.49c -exe
选中所有名称的开头是“eMule”,结尾是“0.49c”的:^emule 0.49c$
选中所有名称中带有“eMule 0.49c”的(必须是“eMule 0.49c”,中间没有别的字符,不能是“eMule fake 0.49c”),需要转义:"emule 0.49c"
大小选择器帮您根据文件大小选择文件。