当前位置: 首页 >> 港台电影 >> 黑社会2:以和为贵[国粤语配音/中文字幕].Election.2.2006.1080p.BluRay.x265.10bit.DTS.2Audio 5.74GB >> 正文

黑社会2:以和为贵[国粤语配音/中文字幕].Election.2.2006.1080p.BluRay.x265.10bit.DTS.2Audio 5.74GB

2021年10月13日 12:44:55     电影发布:来源于网络     电影分类:港台电影     评论(0)    

黑社会2:以和为贵[国粤语配音/中文字幕].Election.2.2006.1080p.BluRay.x265.10bit.DTS.2Audio 5.74GB 犯罪片 惊悚片 剧情片 港台电影  第1张

◎译 名 黑社会2:以和为贵 / 黑社会2 / Election 2

◎片 名 黑社會以和為貴

◎年 代 2006

◎产 地 中国香港

◎类 别 剧情 / 惊悚 / 犯罪

◎语 言 汉语普通话 / 粤语

◎上映日期 2006-04-27(中国香港)

◎IMDb链接 https://www.imdb.com/title/tt0491244/

◎豆瓣评分 8.1/10 (113413人评价)

◎豆瓣链接 https://movie.douban.com/subject/1484760/

◎片 长 92分钟

◎导 演 杜琪峰 Johnnie To (id:1160186)

◎编 剧 游乃海 Nai-Hoi Yau (id:1161310)

叶天成 Tin-Shing Yip (id:1306719)

◎演 员 古天乐 Louis Koo (id:1027577)

任达华 Simon Yam (id:1031194)

张家辉 Nick Cheung (id:1037273)

林家栋 Ka Tung Lam (id:1050329)

王天林 Tian-lin Wang (id:1041074)

林雪 Suet Lam (id:1274279)

安志杰 Andy On (id:1045364)

郑浩南 Mark Cheng (id:1028605)

张兆辉 Siu-Fai Cheung (id:1005843)

谭炳文 Ping-Man Tam (id:1317676)

尤勇智 Yongzhi You (id:1301518)

潘月彤 Yue-Tong Pan (id:1364273)

张武孝 Mo-Hau Cheung (id:1364458)

元彬 Bun Yuen (id:1278657)

莫醒麟 Shing Lun Mok (id:1364459)

李日升 Jonathan Yat-Sing Lee (id:1364272)

黄思恩 Sze Yan Wong (id:1364267)

徐忠信 Alan Chui Chung San (id:1327646)

罗强 Chiang Lo (id:1364460)

赵志诚 Chiu Chi Shing (id:1326360)

罗靖庭 Ching Ting Law (id:1364461)

唐培中 Pui Chung Tong (id:1364270)

张荣祥 Cheung Wing-Cheung (id:1326361)

张志平 Chi Ping Chang (id:1364462)

陈绍佳 Shao-Chia Chen (id:1364463)

周建军 Jianjun Zhou (id:1364464)

李发源 Fa Yuan Li (id:1360501)

陈桂芬 Brenda Chan (id:1364465)

樊文杰 Man Kit Fan (id:1364466)

凌振帮 Chun Pong Ling (id:1311447)

余袁稳 Yu Yuen Yin (id:1364266)

杜琪峰 Johnnie To (id:1160186)

向华强 Charles Heung (id:1037691)

鞠觉亮 Kok Leung Kuk (id:1315703)

罗守耀 Dennis Law (id:1289547)

丁云山 Wan San Ding (id:1388181)

罗大佑 Tayu Lo (id:1011384)

郑兆强 Siu-keung Cheng (id:1280597)

罗永昌 Wing-cheong Law (id:1274489)

张家杰 Jeff Cheung (id:1391313)

张世杰 Stanley Cheung (id:1280624)

文润铃 Yun-Ling Man (id:1290093)

罗永昌 Wing-cheong Law (id:1274489)

陈伟雄 Phat Chan (id:1275153)

张家杰 Jeff Cheung (id:1391313)

马文现 Stephen Ma (id:1290573)

◎标 签 杜琪峰 / 香港 / 黑帮 / 香港电影 / 黑社会 / 古天乐 / 银河映像 / 任达华

◎简 介

自从阿乐(任达华饰)当上和联胜办事人后,总算有一个过度性的安宁局面。然而,两年一度的办事人选举又一次即将来临。

现任办事人阿乐留恋身份权力,希望说服一众元老和邓伯(王天林饰)修例让其连任。而人马众多的Jimmy仔(古天乐饰)为被看好的新办事人人选,但他却只想着生意。一次交易,Jimmy在国内被捕,对方告诫他不可从事生意活动,除非身为办事人。为了大计,Jimmy终与阿乐反目,争当办事人。

另一边,阿乐为了铲除障碍,说服东莞仔(林家栋饰)与其联手,绑架Jimmy幕后老板以迫其放弃。一场腥风血雨的冲突拉开序幕,最后他们的恩怨如何解决?是否真能以和为贵?

◎获奖情况 (共8项)

第26届香港电影金像奖 (2007)

最佳电影(提名)

最佳导演(提名)

└──杜琪峰 (id:1160186)

最佳编剧(提名)

最佳男配角(提名)

第7届华语电影传媒大奖 (2007)

评审团奖

└──杜琪峰 (id:1160186)

最佳电影(提名)

最佳导演(提名)

└──杜琪峰 (id:1160186)

最佳编剧(提名)

  1. ##### MediaInfo ######

  2. General

  3. Unique ID : 145466582449396811951332240439792177339 (0x6D6FD83E91278F4F54842F5FFF3110BB)

  4. Complete name : [email protected]COM.mkv

  5. Format : Matroska

  6. Format version : Version 4

  7. File size : 5.74 GiB

  8. Duration : 1 h 32 min

  9. Overall bit rate : 8 862 kb/s

  10. Movie name : Election 2

  11. Encoded date : UTC 2021-10-11 16:52:59

  12. Writing application : mkvmerge v62.0.0 ('Apollo') 64-bit

  13. Writing library : libebml v1.4.2 + libmatroska v1.6.4

  14. Cover : Yes

  15. Attachments : cover.jpg


  16. Video

  17. ID : 1

  18. Format : HEVC

  19. Format/Info : High Efficiency Video Coding

  20. Format profile : Main [email protected]@Main

  21. Codec ID : V_MPEGH/ISO/HEVC

  22. Duration : 1 h 32 min

  23. Bit rate : 6 682 kb/s

  24. Width : 1 920 pixels

  25. Height : 800 pixels

  26. Display aspect ratio : 2.40:1

  27. Frame rate mode : Constant

  28. Frame rate : 24.000 FPS

  29. Color space : YUV

  30. Chroma subsampling : 4:2:0

  31. Bit depth : 10 bits

  32. Bits/(Pixel*Frame) : 0.181

  33. Stream size : 4.33 GiB (75%)

  34. Writing library : x265 3.5+2-g2b25c9ba0+45:[Windows][GCC 10.2.0][64 bit] Yuuki 10bit+8bit+12bit

  35. Encoding settings : rc=crf / crf=18.5000 / qcomp=0.60 / qpstep=4 / stats-write=0 / stats-read=0 / no-lossless / no-cu-lossless / aq-mode=3 / aq-strength=0.90 / cbqpoffs=0 / crqpoffs=0 / ipratio=1.40 / pbratio=1.30 / psy-rd=2.00 / psy-rdoq=0.00 / deblock=0:0 / ref=6 / limit-refs=1 / no-limit-modes / bframes=8 / b-adapt=2 / bframe-bias=0 / b-pyramid / b-intra / weightp / weightb / min-keyint=24 / max-keyint=240 / rc-lookahead=24 / gop-lookahead=0 / NTMzNTQ=uuDQuD2mJt9fsCf / scenecut=40 / hist-scenecut=0 / radl=0 / max-cu-size=64 / min-cu-size=8 / me=3 / subme=7 / merange=48 / rdoq-level=0 / rd=4 / rdpenalty=0 / dynamic-rd=0.00 / no-rd-refine / ----- / cutree / sao / no-rect / no-amp / no-open-gop / wpp / no-pmode / no-pme / no-psnr / no-ssim / nr-intra=0 / nr-inter=0 / no-constrained-intra / no-strong-intra-smoothing / max-tu-size=32 / tu-inter-depth=1 / tu-intra-depth=1 / limit-tu=0 / qg-size=32 / qpmax=69 / qpmin=0 / ----- / cpuid=533541111039 / frame-threads=4 / numa-pools=+ / log-level=2 / input-csp=1 / input-res=1920x800 / interlace=0 / level-idc=0 / high-tier=1 / uhd-bd=0 / no-allow-non-conformance / no-repeat-headers / aud / no-hrd / info / hash=0 / no-temporal-layers / lookahead-slices=0 / no-splice / no-intra-refresh / no-ssim-rd / signhide / no-tskip / max-merge=3 / temporal-mvp / no-frame-dup / no-hme / no-analyze-src-pics / no-sao-non-deblock / selective-sao=4 / early-skip / rskip / no-fast-intra / no-tskip-fast / no-splitrd-skip / zone-count=0 / no-strict-cbr / no-rc-grain / no-const-vbv / sar=0 / overscan=0 / videoformat=5 / range=0 / colorprim=2 / transfer=2 / colormatrix=2 / chromaloc=0 / display-window=0 / cll=0,0 / min-luma=0 / max-luma=1023 / log2-max-poc-lsb=8 / vui-timing-info / vui-hrd-info / slices=1 / no-opt-qp-pps / no-opt-ref-list-length-pps / no-multi-pass-opt-rps / scenecut-bias=0.05 / hist-threshold=0.03 / no-opt-cu-delta-qp / no-aq-motion / no-hdr10 / no-hdr10-opt / no-dhdr10-opt / no-idr-recovery-sei / analysis-reuse-level=0 / analysis-save-reuse-level=0 / analysis-load-reuse-level=0 / scale-factor=0 / refine-intra=0 / refine-inter=0 / refine-mv=1 / refine-ctu-distortion=0 / no-limit-sao / ctu-info=0 / no-lowpass-dct / refine-analysis-type=0 / copy-pic=1 / max-ausize-factor=1.0 / no-dynamic-refine / no-single-sei / no-hevc-aq / no-svt / no-field / qp-adaptation-range=1.00 / scenecut-aware-qp=0conformance-window-offsets / right=0 / bottom=0 / NTMzNTQ= / decoder-max-rate=0 / no-vbv-live-multi-pass

  36. Default : Yes

  37. Forced : No


  38. Audio #1

  39. ID : 2

  40. ID in the original source medium : 4352 (0x1100)

  41. Format : DTS

  42. Format/Info : Digital Theater Systems

  43. Codec ID : A_DTS

  44. Duration : 1 h 32 min

  45. Bit rate mode : Constant

  46. Bit rate : 1 509 kb/s

  47. Channel(s) : 6 channels

  48. Channel layout : C L R Ls Rs LFE

  49. Sampling rate : 48.0 kHz

  50. Frame rate : 93.750 FPS (512 SPF)

  51. Bit depth : 16 bits

  52. Compression mode : Lossy

  53. Stream size : 1 001 MiB (17%)

  54. Title : Cantonese

  55. Language : Chinese

  56. Default : Yes

  57. Forced : No

  58. Original source medium : Blu-ray


  59. Audio #2

  60. ID : 3

  61. ID in the original source medium : 4354 (0x1102)

  62. Format : AC-3

  63. Format/Info : Audio Coding 3

  64. Commercial name : Dolby Digital

  65. Codec ID : A_AC3

  66. Duration : 1 h 32 min

  67. Bit rate mode : Constant

  68. Bit rate : 640 kb/s

  69. Channel(s) : 6 channels

  70. Channel layout : L R C LFE Ls Rs

  71. Sampling rate : 48.0 kHz

  72. Frame rate : 31.250 FPS (1536 SPF)

  73. Compression mode : Lossy

  74. Stream size : 424 MiB (7%)

  75. Title : Mandarin

  76. Language : Chinese

  77. Service kind : Complete Main

  78. Default : No

  79. Forced : No

  80. Original source medium : Blu-ray


  81. Text #1

  82. ID : 4

  83. ID in the original source medium : 4609 (0x1201)

  84. Format : PGS

  85. Muxing mode : zlib

  86. Codec ID : S_HDMV/PGS

  87. Codec ID/Info : Picture based subtitle format used on BDs/HD-DVDs

  88. Duration : 1 h 28 min

  89. Bit rate : 18.9 kb/s

  90. Count of elements : 1320

  91. Stream size : 11.9 MiB (0%)

  92. Title : chs

  93. Language : Chinese

  94. Default : Yes

  95. Forced : No

  96. Original source medium : Blu-ray


  97. Text #2

  98. ID : 5

  99. ID in the original source medium : 4608 (0x1200)

  100. Format : PGS

  101. Muxing mode : zlib

  102. Codec ID : S_HDMV/PGS

  103. Codec ID/Info : Picture based subtitle format used on BDs/HD-DVDs

  104. Duration : 1 h 28 min

  105. Bit rate : 19.5 kb/s

  106. Count of elements : 1320

  107. Stream size : 12.3 MiB (0%)

  108. Title : cht

  109. Language : Chinese

  110. Default : No

  111. Forced : No

  112. Original source medium : Blu-ray


  113. Text #3

  114. ID : 6

  115. ID in the original source medium : 4610 (0x1202)

  116. Format : PGS

  117. Muxing mode : zlib

  118. Codec ID : S_HDMV/PGS

  119. Codec ID/Info : Picture based subtitle format used on BDs/HD-DVDs

  120. Duration : 1 h 28 min

  121. Bit rate : 17.6 kb/s

  122. Count of elements : 1320

  123. Stream size : 11.1 MiB (0%)

  124. Title : eng

  125. Language : English

  126. Default : No

  127. Forced : No

  128. Original source medium : Blu-ray


  129. Menu

  130. 00:00:00.000 : en:第 01 章

  131. 00:10:24.625 : en:第 02 章

  132. 00:16:30.750 : en:第 03 章

  133. 00:24:20.875 : en:第 04 章

  134. 00:34:59.958 : en:第 05 章

  135. 00:42:15.208 : en:第 06 章

  136. 00:48:47.583 : en:第 07 章

  137. 00:55:24.250 : en:第 08 章

  138. 01:04:25.458 : en:第 09 章

  139. 01:11:13.333 : en:第 10 章

  140. 01:20:45.208 : en:第 11 章

  141. 01:27:34.333 : en:第 12 章


文件下载


除非特别注明,本文『黑社会2:以和为贵[国粤语配音/中文字幕].Election.2.2006.1080p.BluRay.x265.10bit.DTS.2Audio 5.74GB』来源于互联网机器人自动抓取,非本站原创。 浮游电影网不对本文拥有版权,如有侵犯,请联系邮箱:fuyouu#yandex.com[#换成@]投诉。我们会在15个工作日内删除。 但烦请转载时请标明出处:“本文转载于『浮游电影网』,原文地址:https://www.fuyouu.com/14917.html

评论吧骚年!

发表你的见解   

昵称*

E-mail*(建议输入,以便收到博主回复的提示邮件)

验证码*

您可以使用eMule或eMule Mod(Windows)、aMule(Win、Linux、Mac)等软件下载eD2k链接。。
eMule收藏集(.emulecollection)文件是您选中的所有链接的列表文件。eMule可以直接下载它们。
按住SHIFT键选择可以选中多个选择框。
可用文件名和大小选择器来选择文件。
文件名选择器帮您根据文件名称或后缀来选择文件。不分大小写。
符号使用:
和:空格( )、+
不包含:-
或:|
转义:一对英文引号("");
匹配开头:^
匹配结尾:$
例如:
选中所有名称中包含有“eMule”或“0.49c”字眼,但不包含有“exe”字眼的:emule|0.49c -exe
选中所有名称的开头是“eMule”,结尾是“0.49c”的:^emule 0.49c$
选中所有名称中带有“eMule 0.49c”的(必须是“eMule 0.49c”,中间没有别的字符,不能是“eMule fake 0.49c”),需要转义:"emule 0.49c"
大小选择器帮您根据文件大小选择文件。