当前位置: 首页 >> 港台电影 >> 追鬼七雄[国粤语配音/中文字幕].The.Trail.1983.1080p.BluRay.x265.10bit.DTS.2Audio 4.96GB >> 正文

追鬼七雄[国粤语配音/中文字幕].The.Trail.1983.1080p.BluRay.x265.10bit.DTS.2Audio 4.96GB

2021年10月13日 12:37:19     电影发布:来源于网络     电影分类:港台电影     评论(0)    

追鬼七雄[国粤语配音/中文字幕].The.Trail.1983.1080p.BluRay.x265.10bit.DTS.2Audio 4.96GB 恐怖片 喜剧片 港台电影  第1张

◎译 名 追鬼七雄 / 野鬼先生 / The Trail

◎年 代 1983

◎产 地 中国香港

◎类 别 喜剧 / 恐怖

◎语 言 汉语普通话 / 粤语

◎上映日期 1983-03-31

◎IMDb链接 https://www.imdb.com/title/tt0083361/

◎豆瓣评分 6.3/10 (2637人评价)

◎豆瓣链接 https://movie.douban.com/subject/2063034/

◎片 长 91分钟

◎导 演 于仁泰 Ronny Yu (id:1301565)

◎编 剧 许冠文 Michael Koon Man Hui (id:1050534)

于仁泰 Ronny Yu (id:1301565)

◎演 员 许冠英 Ricky Hui (id:1023727)

曹达华 Tat-wah Cho (id:1070438)

钟发 Fat Chung (id:1314531)

郑则仕 Kent Cheng (id:1019278)

陈友 Anthony Chan (id:1028948)

恬妮 Ni Tien (id:1274851)

徐小玲 Hsiao-ling Hsu (id:1337879)

苗天 Tien Miao (id:1115076)

火星 Mars (id:1033056)

许冠文 Michael Koon Man Hui (id:1050534)

邹文怀 Raymond Chow (id:1016883)

张永雄 Paul Cheung (id:1402485)

刘嘉蔚 Catherine Lau (id:1341597)

周少龙 Shao Lung Chou (id:1344862)

◎标 签 香港 / 恐怖 / 香港电影 / 鬼片 / 许冠英 / 郑则仕 / 喜剧 / 于仁泰

◎简 介

排长(郑则仕 饰)与阿英(许冠英 饰)乔装赶尸道人,与五名扮成僵尸的同伙夹带鸦片贩卖路经马祥坪。独霸一方的苗老爷为强占歌女害死琴师阿昌,威逼利诱托排长携尸体出城。七人出城进入原始森林,不慎将尸体遗落于硫磺沼泽,众人将错就错,寻至客店安歇。

当晚一名同伙遇害,乡民传言厉鬼作祟,排长与其余五人搜集大蒜等物赴荒郊祛鬼,经由古墓内的几番交手,排长等人一败涂地。排长与阿英逃得性命后折返马祥坪向苗老爷报信,始知厉鬼动机只在向苗老爷寻仇,排长眼见助阵道士斗法厉鬼失败,趁机施计要挟苗老爷,反被对方制服,充作与厉鬼决战时的肉饵……

  1. ##### MediaInfo ######

  2. General

  3. Unique ID : 316395281198926595722768222501781939171 (0xEE0783BEF2A78AB99D80D8D42314A3E3)

  4. Complete name : [email protected]OM.mkv

  5. Format : Matroska

  6. Format version : Version 4

  7. File size : 4.96 GiB

  8. Duration : 1 h 30 min

  9. Overall bit rate : 7 839 kb/s

  10. Encoded date : UTC 2021-10-11 10:02:55

  11. Writing application : mkvmerge v59.0.0 ('Shining Star') 64-bit

  12. Writing library : libebml v1.4.2 + libmatroska v1.6.4


  13. Video

  14. ID : 1

  15. Format : HEVC

  16. Format/Info : High Efficiency Video Coding

  17. Format profile : Main [email protected]@Main

  18. Codec ID : V_MPEGH/ISO/HEVC

  19. Duration : 1 h 30 min

  20. Bit rate : 4 799 kb/s

  21. Width : 1 920 pixels

  22. Height : 812 pixels

  23. Display aspect ratio : 2.35:1

  24. Frame rate mode : Constant

  25. Frame rate : 24.000 FPS

  26. Color space : YUV

  27. Chroma subsampling : 4:2:0

  28. Bit depth : 10 bits

  29. Bits/(Pixel*Frame) : 0.128

  30. Stream size : 3.04 GiB (61%)

  31. Writing library : x265 3.4+1-g07e3381df+31:[Windows][GCC 10.1.0][64 bit] Yuuki 10bit+8bit+12bit

  32. Encoding settings : rc=crf / crf=16.0000 / qcomp=0.70 / qpstep=4 / stats-write=0 / stats-read=0 / no-lossless / no-cu-lossless / aq-mode=3 / aq-strength=0.60 / cbqpoffs=0 / crqpoffs=0 / ipratio=1.40 / pbratio=1.30 / psy-rd=2.00 / psy-rdoq=0.00 / deblock=0:0 / ref=6 / limit-refs=1 / no-limit-modes / bframes=8 / b-adapt=2 / bframe-bias=0 / b-pyramid / b-intra / weightp / weightb / min-keyint=24 / max-keyint=240 / rc-lookahead=24 / gop-lookahead=0 / NTMzNTQ=uuDQuD2mJt9fsCf / scenecut=40 / hist-scenecut=0 / radl=0 / max-cu-size=64 / min-cu-size=8 / me=3 / subme=7 / merange=48 / rdoq-level=0 / rd=4 / rdpenalty=0 / dynamic-rd=0.00 / no-rd-refine / ----- / cutree / sao / no-rect / no-amp / no-open-gop / wpp / no-pmode / no-pme / no-psnr / no-ssim / nr-intra=0 / nr-inter=0 / no-constrained-intra / no-strong-intra-smoothing / max-tu-size=32 / tu-inter-depth=1 / tu-intra-depth=1 / limit-tu=0 / qg-size=32 / qpmax=69 / qpmin=0 / ----- / cpuid=533541111039 / frame-threads=4 / numa-pools=+ / log-level=2 / input-csp=1 / input-res=1920x812 / interlace=0 / level-idc=0 / high-tier=1 / uhd-bd=0 / no-allow-non-conformance / no-repeat-headers / aud / no-hrd / info / hash=0 / no-temporal-layers / lookahead-slices=0 / no-splice / no-intra-refresh / no-ssim-rd / signhide / no-tskip / max-merge=3 / temporal-mvp / no-frame-dup / no-hme / no-analyze-src-pics / no-sao-non-deblock / selective-sao=4 / early-skip / rskip / no-fast-intra / no-tskip-fast / no-splitrd-skip / zone-count=0 / no-strict-cbr / no-rc-grain / no-const-vbv / sar=0 / overscan=0 / videoformat=5 / range=0 / colorprim=2 / transfer=2 / colormatrix=2 / chromaloc=0 / display-window=0 / cll=0,0 / min-luma=0 / max-luma=1023 / log2-max-poc-lsb=8 / vui-timing-info / vui-hrd-info / slices=1 / no-opt-qp-pps / no-opt-ref-list-length-pps / no-multi-pass-opt-rps / scenecut-bias=0.05 / hist-threshold=0.01 / no-opt-cu-delta-qp / no-aq-motion / no-hdr10 / no-hdr10-opt / no-dhdr10-opt / no-idr-recovery-sei / analysis-reuse-level=0 / analysis-save-reuse-level=0 / analysis-load-reuse-level=0 / scale-factor=0 / refine-intra=0 / refine-inter=0 / refine-mv=1 / refine-ctu-distortion=0 / no-limit-sao / ctu-info=0 / no-lowpass-dct / refine-analysis-type=0 / copy-pic=1 / max-ausize-factor=1.0 / no-dynamic-refine / no-single-sei / no-hevc-aq / no-svt / no-field / qp-adaptation-range=1.00 / no-scenecut-aware-qpconformance-window-offsets / right=0 / bottom=0 / NTMzNTQ= / decoder-max-rate=0

  33. Language : English

  34. Default : Yes

  35. Forced : No


  36. Audio #1

  37. ID : 2

  38. Format : DTS

  39. Format/Info : Digital Theater Systems

  40. Codec ID : A_DTS

  41. Duration : 1 h 30 min

  42. Bit rate mode : Constant

  43. Bit rate : 1 510 kb/s

  44. Channel(s) : 6 channels

  45. Channel layout : C L R Ls Rs LFE

  46. Sampling rate : 48.0 kHz

  47. Frame rate : 93.750 FPS (512 SPF)

  48. Bit depth : 24 bits

  49. Compression mode : Lossy

  50. Stream size : 978 MiB (19%)

  51. Title : Cantonese

  52. Language : Chinese

  53. Default : Yes

  54. Forced : No


  55. Audio #2

  56. ID : 3

  57. Format : DTS

  58. Format/Info : Digital Theater Systems

  59. Codec ID : A_DTS

  60. Duration : 1 h 30 min

  61. Bit rate mode : Constant

  62. Bit rate : 1 510 kb/s

  63. Channel(s) : 6 channels

  64. Channel layout : C L R Ls Rs LFE

  65. Sampling rate : 48.0 kHz

  66. Frame rate : 93.750 FPS (512 SPF)

  67. Bit depth : 24 bits

  68. Compression mode : Lossy

  69. Stream size : 978 MiB (19%)

  70. Title : Mandarin

  71. Language : Chinese

  72. Default : No

  73. Forced : No


  74. Text #1

  75. ID : 4

  76. Format : PGS

  77. Muxing mode : zlib

  78. Codec ID : S_HDMV/PGS

  79. Codec ID/Info : Picture based subtitle format used on BDs/HD-DVDs

  80. Duration : 1 h 27 min

  81. Bit rate : 11.9 kb/s

  82. Count of elements : 986

  83. Stream size : 7.42 MiB (0%)

  84. Title : cht

  85. Language : Chinese

  86. Default : No

  87. Forced : No


  88. Text #2

  89. ID : 5

  90. Format : PGS

  91. Muxing mode : zlib

  92. Codec ID : S_HDMV/PGS

  93. Codec ID/Info : Picture based subtitle format used on BDs/HD-DVDs

  94. Duration : 1 h 27 min

  95. Bit rate : 11.0 kb/s

  96. Count of elements : 986

  97. Stream size : 6.88 MiB (0%)

  98. Title : chs

  99. Language : Chinese

  100. Default : Yes

  101. Forced : No


  102. Text #3

  103. ID : 6

  104. Format : PGS

  105. Muxing mode : zlib

  106. Codec ID : S_HDMV/PGS

  107. Codec ID/Info : Picture based subtitle format used on BDs/HD-DVDs

  108. Duration : 1 h 27 min

  109. Bit rate : 12.3 kb/s

  110. Count of elements : 986

  111. Stream size : 7.71 MiB (0%)

  112. Title : eng

  113. Language : English

  114. Default : No

  115. Forced : No


  116. Menu

  117. 00:00:00.000 : :第 01 章

  118. 00:07:48.292 : :第 02 章

  119. 00:14:58.208 : :第 03 章

  120. 00:26:23.458 : :第 04 章

  121. 00:37:54.208 : :第 05 章

  122. 00:43:03.958 : :第 06 章

  123. 00:53:13.708 : :第 07 章

  124. 01:00:56.042 : :第 08 章

  125. 01:05:26.667 : :第 09 章

  126. 01:12:28.750 : :第 10 章

  127. 01:17:29.542 : :第 11 章

  128. 01:26:06.958 : :第 12 章




复制代码



文件下载


除非特别注明,本文『追鬼七雄[国粤语配音/中文字幕].The.Trail.1983.1080p.BluRay.x265.10bit.DTS.2Audio 4.96GB』来源于互联网机器人自动抓取,非本站原创。 浮游电影网不对本文拥有版权,如有侵犯,请联系邮箱:fuyouu#yandex.com[#换成@]投诉。我们会在15个工作日内删除。 但烦请转载时请标明出处:“本文转载于『浮游电影网』,原文地址:https://www.fuyouu.com/14912.html

评论吧骚年!

发表你的见解   

昵称*

E-mail*(建议输入,以便收到博主回复的提示邮件)

验证码*

您可以使用eMule或eMule Mod(Windows)、aMule(Win、Linux、Mac)等软件下载eD2k链接。。
eMule收藏集(.emulecollection)文件是您选中的所有链接的列表文件。eMule可以直接下载它们。
按住SHIFT键选择可以选中多个选择框。
可用文件名和大小选择器来选择文件。
文件名选择器帮您根据文件名称或后缀来选择文件。不分大小写。
符号使用:
和:空格( )、+
不包含:-
或:|
转义:一对英文引号("");
匹配开头:^
匹配结尾:$
例如:
选中所有名称中包含有“eMule”或“0.49c”字眼,但不包含有“exe”字眼的:emule|0.49c -exe
选中所有名称的开头是“eMule”,结尾是“0.49c”的:^emule 0.49c$
选中所有名称中带有“eMule 0.49c”的(必须是“eMule 0.49c”,中间没有别的字符,不能是“eMule fake 0.49c”),需要转义:"emule 0.49c"
大小选择器帮您根据文件大小选择文件。