当前位置: 首页 >> 港台电影 >> 黑社会[国粤语配音/中文字幕].Election.2005.1080p.BluRay.x265.10bit.DTS.2Audio 5.81GB >> 正文

黑社会[国粤语配音/中文字幕].Election.2005.1080p.BluRay.x265.10bit.DTS.2Audio 5.81GB

2021年10月12日 13:30:42     电影发布:来源于网络     电影分类:港台电影     评论(0)    

黑社会[国粤语配音/中文字幕].Election.2005.1080p.BluRay.x265.10bit.DTS.2Audio 5.81GB 犯罪片 惊悚片 剧情片 港台电影  第1张

◎译 名 黑社会 / 龙城岁月 / 选老坐 / Election / Hak Se Wui

◎片 名 黑社會

◎年 代 2005

◎产 地 中国香港

◎类 别 剧情 / 惊悚 / 犯罪

◎语 言 汉语普通话 / 粤语

◎上映日期 2005-10-20(中国香港)

◎IMDb链接 https://www.imdb.com/title/tt0434008/

◎豆瓣评分 8.3/10 (147053人评价)

◎豆瓣链接 https://movie.douban.com/subject/1309220/

◎片 长 100 分钟

◎导 演 杜琪峰 Johnnie To (id:1160186)

◎编 剧 游乃海 Nai-Hoi Yau (id:1161310)

叶天成 Tin-Shing Yip (id:1306719)

◎演 员 任达华 Simon Yam (id:1031194)

梁家辉 Tony Leung (id:1118167)

古天乐 Louis Koo (id:1027577)

林雪 Suet Lam (id:1274279)

张家辉 Nick Cheung (id:1037273)

张兆辉 Siu-Fai Cheung (id:1005843)

林家栋 Ka Tung Lam (id:1050329)

王天林 Tian-lin Wang (id:1041074)

谭炳文 Ping-Man Tam (id:1317676)

邵美琪 Maggie Siu (id:1152997)

姜大卫 David Chiang (id:1013705)

尤勇智 Yongzhi You (id:1301518)

黄浩然 Raymond Wong Ho-Yin (id:1051740)

车保罗 Paul Che (id:1315269)

吴廷烨 Berg Ng (id:1275607)

郭锋 Fung Kwok (id:1314508)

王钟 Chung Wang (id:1003807)

陈少鹏 Siu-Pang Chan (id:1326667)

元彬 Bun Yuen (id:1278657)

甄懋强 Ronald Yan (id:1364264)

洪罗拔 Robert Hung (id:1364265)

余袁稳 Yu Yuen Yin (id:1364266)

黄志伟 Chi Wai Wong (id:1308890)

赵志诚 Chiu Chi Shing (id:1326360)

黄思恩 Sze Yan Wong (id:1364267)

林文伟 Wen-Wei Lin (id:1364268)

何汉州 Hoi Chau Ho (id:1364269)

唐培中 Pui Chung Tong (id:1364270)

何柱 Chu Ho (id:1364271)

元宝 Bo Yuen (id:1346065)

李日升 Jonathan Yat-Sing Lee (id:1364272)

黄华和 Wah Wo Wong (id:1355706)

杜琪峰 Johnnie To (id:1160186)

鞠觉亮 Kok Leung Kuk (id:1315703)

罗守耀 Dennis Law (id:1289547)

向华强 Charles Heung (id:1037691)

丁云山 Wan San Ding (id:1388181)

罗大佑 Tayu Lo (id:1011384)

陈歌辛 Gexin Chen (id:1344624)

郑兆强 Siu-keung Cheng (id:1280597)

谭家明 Patrick Tam (id:1275088)

张世杰 Stanley Cheung (id:1280624)

罗永昌 Wing-cheong Law (id:1274489)

陈伟雄 Phat Chan (id:1275153)

莫美华 May Mok (id:1302552)

罗柏禹 Charlie Lo (id:1330668)

马文现 Stephen Ma (id:1290573)

林夕 Albert Leung (id:1370440)

吕丽桦 Olivia Lui Lai-wah (id:1328035)

◎标 签 杜琪峰 / 黑帮 / 香港 / 香港电影 / 黑社会 / 梁家辉 / 银河映像 / 任达华

◎简 介

香港最大黑社会帮会“和联胜”举行两年一度的办事人选举,阿乐(任达华饰)与大D(梁家辉饰)作为两大地区领导,暗地里展开争夺宝座的努力,一众有投票权的元老亦为自身利益而明争暗斗,选举因此相当不顺利。

结果,阿乐再次获选成为办事人,满心不服的大D决定挑战帮规,他要抢夺到象征最高权力的信物龙头棍,组织新帮会。五名小头目(古天乐、张兆辉、张家辉、林雪、林家栋饰)牵连其中,为争夺龙头棍展开连番内斗。最终鹿死谁手,一切不得而知。

◎获奖情况 (共27项)

第58届戛纳电影节 (2005)

主竞赛单元 金棕榈奖(提名)

└──杜琪峰 (id:1160186)

第42届台北金马影展 (2005)

金马奖 最佳剧情片(提名)

金马奖 最佳导演(提名)

└──杜琪峰 (id:1160186)

金马奖 最佳男主角(提名)

└──梁家辉 (id:1118167)

金马奖 最佳男配角(提名)

└──王天林 (id:1041074)

金马奖 最佳原著剧本

金马奖 最佳摄影(提名)

└──郑兆强 (id:1280597)

金马奖 最佳造型设计(提名)

└──张世杰 (id:1280624)

金马奖 最佳动作设计(提名)

└──黄志伟 (id:1308890)

金马奖 最佳原创配乐(提名)

└──罗大佑 (id:1011384)

金马奖 最佳原创歌曲(提名)

金马奖 最佳音效

第25届香港电影金像奖 (2006)

最佳电影

最佳导演

└──杜琪峰 (id:1160186)

最佳编剧

最佳男主角

└──梁家辉 (id:1118167)

最佳男主角(提名)

└──任达华 (id:1031194)

最佳男配角(提名)

└──王天林 (id:1041074)

最佳女配角(提名)

└──邵美琪 (id:1152997)

最佳摄影(提名)

└──郑兆强 (id:1280597)

最佳剪接(提名)

└──谭家明 (id:1275088)

最佳原创电影音乐(提名)

└──罗大佑 (id:1011384)

第6届华语电影传媒大奖 (2006)

最佳电影

最佳导演(提名)

└──杜琪峰 (id:1160186)

最佳男主角

└──梁家辉 (id:1118167)

最佳男主角(提名)

└──任达华 (id:1031194)

最佳编剧(提名)

  1. ##### MediaInfo ######

  2. General

  3. Unique ID : 155661101335278174167060045011452922750 (0x751B3CD4E9AA5071D81634FBDB2B8B7E)

  4. Complete name : [email protected]M.mkv

  5. Format : Matroska

  6. Format version : Version 4

  7. File size : 5.80 GiB

  8. Duration : 1 h 39 min

  9. Overall bit rate : 8 328 kb/s

  10. Movie name : Election

  11. Encoded date : UTC 2021-10-11 10:09:23

  12. Writing application : mkvmerge v61.0.0 ('So') 64-bit

  13. Writing library : libebml v1.4.2 + libmatroska v1.6.4

  14. Cover : Yes

  15. Attachments : cover.jpg


  16. Video

  17. ID : 1

  18. Format : HEVC

  19. Format/Info : High Efficiency Video Coding

  20. Format profile : Main [email protected]@Main

  21. Codec ID : V_MPEGH/ISO/HEVC

  22. Duration : 1 h 39 min

  23. Bit rate : 6 135 kb/s

  24. Width : 1 920 pixels

  25. Height : 800 pixels

  26. Display aspect ratio : 2.40:1

  27. Frame rate mode : Constant

  28. Frame rate : 24.000 FPS

  29. Color space : YUV

  30. Chroma subsampling : 4:2:0

  31. Bit depth : 10 bits

  32. Bits/(Pixel*Frame) : 0.166

  33. Stream size : 4.28 GiB (74%)

  34. Writing library : x265 3.5+2-g2b25c9ba0+45:[Windows][GCC 10.2.0][64 bit] Yuuki 10bit+8bit+12bit

  35. Encoding settings : rc=crf / crf=18.0000 / qcomp=0.60 / qpstep=4 / stats-write=0 / stats-read=0 / no-lossless / no-cu-lossless / aq-mode=3 / aq-strength=0.90 / cbqpoffs=0 / crqpoffs=0 / ipratio=1.40 / pbratio=1.30 / psy-rd=2.00 / psy-rdoq=0.00 / deblock=0:0 / ref=6 / limit-refs=1 / no-limit-modes / bframes=8 / b-adapt=2 / bframe-bias=0 / b-pyramid / b-intra / weightp / weightb / min-keyint=24 / max-keyint=240 / rc-lookahead=24 / gop-lookahead=0 / NTMzNTQ=uuDQuD2mJt9fsCf / scenecut=40 / hist-scenecut=0 / radl=0 / max-cu-size=64 / min-cu-size=8 / me=3 / subme=7 / merange=48 / rdoq-level=0 / rd=4 / rdpenalty=0 / dynamic-rd=0.00 / no-rd-refine / ----- / cutree / sao / no-rect / no-amp / no-open-gop / wpp / no-pmode / no-pme / no-psnr / no-ssim / nr-intra=0 / nr-inter=0 / no-constrained-intra / no-strong-intra-smoothing / max-tu-size=32 / tu-inter-depth=1 / tu-intra-depth=1 / limit-tu=0 / qg-size=32 / qpmax=69 / qpmin=0 / ----- / cpuid=533541111039 / frame-threads=4 / numa-pools=+ / log-level=2 / input-csp=1 / input-res=1920x800 / interlace=0 / level-idc=0 / high-tier=1 / uhd-bd=0 / no-allow-non-conformance / no-repeat-headers / aud / no-hrd / info / hash=0 / no-temporal-layers / lookahead-slices=0 / no-splice / no-intra-refresh / no-ssim-rd / signhide / no-tskip / max-merge=3 / temporal-mvp / no-frame-dup / no-hme / no-analyze-src-pics / no-sao-non-deblock / selective-sao=4 / early-skip / rskip / no-fast-intra / no-tskip-fast / no-splitrd-skip / zone-count=0 / no-strict-cbr / no-rc-grain / no-const-vbv / sar=0 / overscan=0 / videoformat=5 / range=0 / colorprim=2 / transfer=2 / colormatrix=2 / chromaloc=0 / display-window=0 / cll=0,0 / min-luma=0 / max-luma=1023 / log2-max-poc-lsb=8 / vui-timing-info / vui-hrd-info / slices=1 / no-opt-qp-pps / no-opt-ref-list-length-pps / no-multi-pass-opt-rps / scenecut-bias=0.05 / hist-threshold=0.03 / no-opt-cu-delta-qp / no-aq-motion / no-hdr10 / no-hdr10-opt / no-dhdr10-opt / no-idr-recovery-sei / analysis-reuse-level=0 / analysis-save-reuse-level=0 / analysis-load-reuse-level=0 / scale-factor=0 / refine-intra=0 / refine-inter=0 / refine-mv=1 / refine-ctu-distortion=0 / no-limit-sao / ctu-info=0 / no-lowpass-dct / refine-analysis-type=0 / copy-pic=1 / max-ausize-factor=1.0 / no-dynamic-refine / no-single-sei / no-hevc-aq / no-svt / no-field / qp-adaptation-range=1.00 / scenecut-aware-qp=0conformance-window-offsets / right=0 / bottom=0 / NTMzNTQ= / decoder-max-rate=0 / no-vbv-live-multi-pass

  36. Default : Yes

  37. Forced : No


  38. Audio #1

  39. ID : 2

  40. ID in the original source medium : 4352 (0x1100)

  41. Format : DTS

  42. Format/Info : Digital Theater Systems

  43. Codec ID : A_DTS

  44. Duration : 1 h 39 min

  45. Bit rate mode : Constant

  46. Bit rate : 1 509 kb/s

  47. Channel(s) : 6 channels

  48. Channel layout : C L R Ls Rs LFE

  49. Sampling rate : 48.0 kHz

  50. Frame rate : 93.750 FPS (512 SPF)

  51. Bit depth : 16 bits

  52. Compression mode : Lossy

  53. Stream size : 1.05 GiB (18%)

  54. Title : Cantonese

  55. Language : Chinese

  56. Default : Yes

  57. Forced : No

  58. Original source medium : Blu-ray


  59. Audio #2

  60. ID : 3

  61. ID in the original source medium : 4354 (0x1102)

  62. Format : AC-3

  63. Format/Info : Audio Coding 3

  64. Commercial name : Dolby Digital

  65. Codec ID : A_AC3

  66. Duration : 1 h 39 min

  67. Bit rate mode : Constant

  68. Bit rate : 640 kb/s

  69. Channel(s) : 6 channels

  70. Channel layout : L R C LFE Ls Rs

  71. Sampling rate : 48.0 kHz

  72. Frame rate : 31.250 FPS (1536 SPF)

  73. Compression mode : Lossy

  74. Stream size : 457 MiB (8%)

  75. Title : Mandarin

  76. Language : Chinese

  77. Service kind : Complete Main

  78. Default : No

  79. Forced : No

  80. Original source medium : Blu-ray


  81. Text #1

  82. ID : 4

  83. ID in the original source medium : 4609 (0x1201)

  84. Format : PGS

  85. Muxing mode : zlib

  86. Codec ID : S_HDMV/PGS

  87. Codec ID/Info : Picture based subtitle format used on BDs/HD-DVDs

  88. Duration : 1 h 33 min

  89. Bit rate : 29.1 kb/s

  90. Count of elements : 2081

  91. Stream size : 19.4 MiB (0%)

  92. Title : chs

  93. Language : Chinese

  94. Default : Yes

  95. Forced : No

  96. Original source medium : Blu-ray


  97. Text #2

  98. ID : 5

  99. ID in the original source medium : 4608 (0x1200)

  100. Format : PGS

  101. Muxing mode : zlib

  102. Codec ID : S_HDMV/PGS

  103. Codec ID/Info : Picture based subtitle format used on BDs/HD-DVDs

  104. Duration : 1 h 33 min

  105. Bit rate : 30.2 kb/s

  106. Count of elements : 2081

  107. Stream size : 20.1 MiB (0%)

  108. Title : cht

  109. Language : Chinese

  110. Default : No

  111. Forced : No

  112. Original source medium : Blu-ray


  113. Text #3

  114. ID : 6

  115. ID in the original source medium : 4610 (0x1202)

  116. Format : PGS

  117. Muxing mode : zlib

  118. Codec ID : S_HDMV/PGS

  119. Codec ID/Info : Picture based subtitle format used on BDs/HD-DVDs

  120. Duration : 1 h 33 min

  121. Bit rate : 26.4 kb/s

  122. Count of elements : 2081

  123. Stream size : 17.6 MiB (0%)

  124. Title : eng

  125. Language : English

  126. Default : No

  127. Forced : No

  128. Original source medium : Blu-ray


  129. Menu

  130. 00:00:00.000 : 第 01 章

  131. 00:09:19.500 : 第 02 章

  132. 00:16:49.500 : 第 03 章

  133. 00:24:14.500 : 第 04 章

  134. 00:33:39.000 : 第 05 章

  135. 00:39:13.000 : 第 06 章

  136. 00:45:22.000 : 第 07 章

  137. 00:54:31.500 : 第 08 章

  138. 01:02:32.500 : 第 09 章

  139. 01:11:00.000 : 第 10 章

  140. 01:19:47.000 : 第 11 章

  141. 01:27:47.500 : 第 12 章



文件下载


除非特别注明,本文『黑社会[国粤语配音/中文字幕].Election.2005.1080p.BluRay.x265.10bit.DTS.2Audio 5.81GB』来源于互联网机器人自动抓取,非本站原创。 浮游电影网不对本文拥有版权,如有侵犯,请联系邮箱:fuyouu#yandex.com[#换成@]投诉。我们会在15个工作日内删除。 但烦请转载时请标明出处:“本文转载于『浮游电影网』,原文地址:https://www.fuyouu.com/14907.html

评论吧骚年!

发表你的见解   

昵称*

E-mail*(建议输入,以便收到博主回复的提示邮件)

验证码*

您可以使用eMule或eMule Mod(Windows)、aMule(Win、Linux、Mac)等软件下载eD2k链接。。
eMule收藏集(.emulecollection)文件是您选中的所有链接的列表文件。eMule可以直接下载它们。
按住SHIFT键选择可以选中多个选择框。
可用文件名和大小选择器来选择文件。
文件名选择器帮您根据文件名称或后缀来选择文件。不分大小写。
符号使用:
和:空格( )、+
不包含:-
或:|
转义:一对英文引号("");
匹配开头:^
匹配结尾:$
例如:
选中所有名称中包含有“eMule”或“0.49c”字眼,但不包含有“exe”字眼的:emule|0.49c -exe
选中所有名称的开头是“eMule”,结尾是“0.49c”的:^emule 0.49c$
选中所有名称中带有“eMule 0.49c”的(必须是“eMule 0.49c”,中间没有别的字符,不能是“eMule fake 0.49c”),需要转义:"emule 0.49c"
大小选择器帮您根据文件大小选择文件。