当前位置: 首页 >> 欧美电影 >> 狂野生活[简繁字幕].Wildlife.2018.CC.BluRay.1080p.DTS-HD.MA5.1.x265.10bit 7.81GB >> 正文

狂野生活[简繁字幕].Wildlife.2018.CC.BluRay.1080p.DTS-HD.MA5.1.x265.10bit 7.81GB

2021年10月12日 13:29:34     电影发布:来源于网络     电影分类:欧美电影     评论(0)    

狂野生活[简繁字幕].Wildlife.2018.CC.BluRay.1080p.DTS HD.MA5.1.x265.10bit 7.81GB 剧情片 欧美电影  第1张

◎译 名 狂野生活

◎片 名 Wildlife

◎年 代 2018

◎产 地 美国

◎类 别 剧情

◎语 言 英语

◎上映日期 2018-01-20(圣丹斯电影节) / 2018-10-19(美国)

◎IMDb链接 https://www.imdb.com/title/tt5929754/

◎豆瓣评分 7.2/10 (10941人评价)

◎豆瓣链接 https://movie.douban.com/subject/26847068/

◎片 长 105分钟

◎导 演 保罗·达诺 Paul Dano (id:1027774)

◎编 剧 保罗·达诺 Paul Dano (id:1027774)

佐伊·卡赞 Zoe Kazan (id:1049657)

理查德·福德 Richard Ford (id:1006842)

◎演 员 杰克·吉伦哈尔 Jake Gyllenhaal (id:1048002)

凯瑞·穆里根 Carey Mulligan (id:1025144)

比尔·坎普 Bill Camp (id:1349856)

艾德·奥克森博尔德 Ed Oxenbould (id:1327129)

佐伊·玛格丽特·科莱蒂 Zoe Margaret Colletti (id:1345006)

凯特·琼斯 Cate Jones (id:1375076)

米莉·米丽耕 Mollie Milligan (id:1408275)

布莱恩·梅 Blaine Maye (id:1408276)

莱西·阿纳斯塔西娅 Lexi Anastasia (id:1408277)

达里尔·考克斯 Darryl Cox (id:1068706)

莎拉·摩尔 Sara Moore (id:1408278)

特拉维斯·布鲁耶 Travis W Bruyer (id:1408279)

杰克·吉伦哈尔 Jake Gyllenhaal (id:1048002)

迪亚戈·加西亚 Diego García (id:1408622)

露易丝·福特 Louise Ford (id:1450155)

◎标 签 美国 / 家庭 / 剧情 / 文艺 / 2018 / 独立 / 成长 / 小说改编

◎简 介

故事发生在1960年的美国,珍妮特(凯瑞·穆丽根 Carey Mulligan 饰)和丈夫杰瑞(杰克·吉伦哈尔 Jake Gyllenhaal 饰)结婚多年,两人的儿子乔伊(艾德·奥克森宝德 Ed Oxenbould 饰)都已经14岁了,一家三口平静度日。最近,一家人搬家来到了蒙大拿州,在这里,杰瑞找到了一份高尔夫球教练的工作。

一场意外让杰瑞不幸丢掉了工作,这让整个家庭都陷入了经济危机之中。失业后,杰瑞整天无所事事的游荡在街头,后来给自己整了个临时消防员的职位,自此之后,他在家里的时间更少了。珍妮特渐渐看清了丈夫的无能和懦弱,决定外出找工作自己养活自己,在此过程中,她邂逅了名为沃伦(比尔·坎普 Bill Camp 饰)的汽车经销商。

◎获奖情况 (共7项)

第71届戛纳电影节 (2018)

金摄影机奖(导演处女作奖)(提名)

└──保罗·达诺 (id:1027774)

第34届圣丹斯电影节 (2018)

评审团大奖 剧情片(提名)

└──保罗·达诺 (id:1027774)

第24届美国评论家选择电影奖 (2019)

最佳青少年演员(提名)

└──艾德·奥克森博尔德 (id:1327129)

第34届美国独立精神奖 (2019)

最佳处女作(提名)

最佳女主角(提名)

└──凯瑞·穆里根 (id:1025144)

最佳摄影(提名)

第2届平遥国际电影展 (2018)

首映单元最受欢迎影片(提名)

└──保罗·达诺 (id:1027774)

  1. ##### MediaInfo ######

  2. General

  3. Unique ID : 265007493333297634525124192090962608178 (0xC75E96314CD38900A7EA2260EB114032)

  4. Complete name : [email protected]DQ.COM.mkv

  5. Format : Matroska

  6. Format version : Version 4

  7. File size : 7.81 GiB

  8. Duration : 1 h 45 min

  9. Overall bit rate mode : Variable

  10. Overall bit rate : 10.6 Mb/s

  11. Encoded date : UTC 2021-10-11 11:06:17

  12. Writing application : mkvmerge v49.0.0 ('Sick Of Losing Soulmates') 64-bit

  13. Writing library : libebml v1.4.0 + libmatroska v1.6.1


  14. Video

  15. ID : 1

  16. Format : HEVC

  17. Format/Info : High Efficiency Video Coding

  18. Format profile : Main [email protected]@High

  19. Codec ID : V_MPEGH/ISO/HEVC

  20. Duration : 1 h 45 min

  21. Bit rate : 7 164 kb/s

  22. Width : 1 920 pixels

  23. Height : 1 040 pixels

  24. Display aspect ratio : 1.85:1

  25. Frame rate mode : Constant

  26. Frame rate : 23.976 (24000/1001/53354) FPS

  27. Color space : YUV

  28. Chroma subsampling : 4:2:0

  29. Bit depth : 10 bits

  30. Bits/(Pixel*Frame) : 0.150

  31. Stream size : 5.26 GiB (67%)

  32. Title : HEVC, [email protected]@High, 24/1.001 fps @ 7164 kbps

  33. Writing library : x265 3.4+14-gd419c7152:[Windows][GCC 10.2.0][64 bit] 10bit

  34. Encoding settings : cpuid=533541111039 / frame-threads=3 / numa-pools=8 / wpp / pmode / pme / no-psnr / no-ssim / log-level=2 / input-csp=1 / input-res=1920x1040 / interlace=0 / total-frames=151124 / level-idc=51 / high-tier=1 / uhd-bd=0 / ref=5 / no-allow-non-conformance / no-repeat-headers / annexb / no-aud / no-hrd / info / hash=0 / no-temporal-layers / open-gop / min-keyint=24 / keyint=240 / gop-lookahead=0 / bframes=6 / b-adapt=2 / b-pyramid / bframe-bias=0 / rc-lookahead=40 / lookahead-slices=0 / NTMzNTQ=uuDQuD2mJt9fsCf / scenecut=40 / hist-scenecut=0 / radl=0 / no-splice / no-intra-refresh / ctu=32 / min-cu-size=8 / no-rect / no-amp / max-tu-size=32 / tu-inter-depth=3 / tu-intra-depth=3 / limit-tu=4 / rdoq-level=2 / dynamic-rd=0.00 / no-ssim-rd / signhide / no-tskip / nr-intra=0 / nr-inter=0 / no-constrained-intra / no-strong-intra-smoothing / max-merge=4 / limit-refs=1 / limit-modes / me=3 / subme=4 / merange=25 / temporal-mvp / no-frame-dup / no-hme / weightp / weightb / no-analyze-src-pics / deblock=-3:-3 / no-sao / no-sao-non-deblock / rd=6 / selective-sao=0 / no-early-skip / rskip / no-fast-intra / no-tskip-fast / no-cu-lossless / b-intra / no-splitrd-skip / rdpenalty=0 / psy-rd=2.00 / psy-rdoq=1.00 / no-rd-refine / no-lossless / cbqpoffs=0 / crqpoffs=0 / rc=crf / crf=17.0 / qcomp=0.65 / qpstep=4 / stats-write=0 / stats-read=0 / vbv-maxrate=80000 / vbv-bufsize=80000 / vbv-init=0.9 / crf-max=0.0 / crf-min=0.0 / ipratio=1.40 / pbratio=1.30 / aq-mode=2 / aq-strength=0.85 / cutree / zone-count=0 / no-strict-cbr / qg-size=32 / no-rc-grain / qpmax=69 / qpmin=0 / no-const-vbv / sar=1 / overscan=0 / videoformat=5 / range=0 / colorprim=1 / transfer=1 / colormatrix=1 / chromaloc=0 / display-window=0 / cll=0,0 / min-luma=0 / max-luma=1023 / log2-max-poc-lsb=8 / vui-timing-info / vui-hrd-info / slices=1 / no-opt-qp-pps / no-opt-ref-list-length-pps / no-multi-pass-opt-rps / scenecut-bias=0.05 / hist-threshold=0.03 / no-opt-cu-delta-qp / no-aq-motion / no-hdr10 / no-hdr10-opt / no-dhdr10-opt / no-idr-recovery-sei / analysis-reuse-level=0 / analysis-save-reuse-level=0 / analysis-load-reuse-level=0 / scale-factor=0 / refine-intra=0 / refine-inter=0 / refine-mv=1 / refine-ctu-distortion=0 / no-limit-sao / ctu-info=0 / no-lowpass-dct / refine-analysis-type=0 / copy-pic=1 / max-ausize-factor=1.0 / no-dynamic-refine / no-single-sei / no-hevc-aq / no-svt / no-field / qp-adaptation-range=1.00 / no-scenecut-aware-qpconformance-window-offsets / right=0 / bottom=0 / NTMzNTQ= / decoder-max-rate=0

  35. Language : English

  36. Default : Yes

  37. Forced : No

  38. Color range : Limited

  39. Color primaries : BT.709

  40. Transfer characteristics : BT.709

  41. Matrix coefficients : BT.709


  42. Audio

  43. ID : 2

  44. Format : DTS XLL

  45. Format/Info : Digital Theater Systems

  46. Commercial name : DTS-HD Master Audio

  47. Codec ID : A_DTS

  48. Duration : 1 h 45 min

  49. Bit rate mode : Variable

  50. Bit rate : 3 408 kb/s

  51. Channel(s) : 6 channels

  52. Channel layout : C L R Ls Rs LFE

  53. Sampling rate : 48.0 kHz

  54. Frame rate : 93.750 FPS (512 SPF)

  55. Bit depth : 24 bits

  56. Compression mode : Lossless

  57. Stream size : 2.50 GiB (32%)

  58. Title : English DTS-HD Master Audio 5.1 @ 3408 kbps

  59. Language : English

  60. Default : Yes

  61. Forced : No


  62. Text #1

  63. ID : 3

  64. Format : PGS

  65. Codec ID : S_HDMV/PGS

  66. Codec ID/Info : Picture based subtitle format used on BDs/HD-DVDs

  67. Duration : 1 h 40 min

  68. Bit rate : 43.0 kb/s

  69. Count of elements : 2356

  70. Stream size : 30.8 MiB (0%)

  71. Title : Eng/SUP

  72. Language : English

  73. Default : No

  74. Forced : No


  75. Text #2

  76. ID : 4

  77. Format : PGS

  78. Codec ID : S_HDMV/PGS

  79. Codec ID/Info : Picture based subtitle format used on BDs/HD-DVDs

  80. Duration : 1 h 41 min

  81. Bit rate : 15.8 kb/s

  82. Count of elements : 2084

  83. Stream size : 11.5 MiB (0%)

  84. Title : Chs/SUP 简体

  85. Language : Chinese

  86. Default : Yes

  87. Forced : No


  88. Text #3

  89. ID : 5

  90. Format : PGS

  91. Codec ID : S_HDMV/PGS

  92. Codec ID/Info : Picture based subtitle format used on BDs/HD-DVDs

  93. Duration : 1 h 41 min

  94. Bit rate : 16.3 kb/s

  95. Count of elements : 2084

  96. Stream size : 11.8 MiB (0%)

  97. Title : Cht/SUP 繁体

  98. Language : Chinese

  99. Default : No

  100. Forced : No


  101. Menu

  102. 00:00:00.000 : en:第 01 章

  103. 00:05:48.682 : en:第 02 章

  104. 00:15:05.655 : en:第 03 章

  105. 00:25:55.220 : en:第 04 章

  106. 00:31:35.393 : en:第 05 章

  107. 00:39:44.424 : en:第 06 章

  108. 00:47:39.565 : en:第 07 章

  109. 00:52:44.119 : en:第 08 章

  110. 01:09:22.700 : en:第 09 章

  111. 01:17:31.605 : en:第 10 章

  112. 01:23:16.909 : en:第 11 章

  113. 01:34:20.280 : en:第 12 章




复制代码




文件下载


除非特别注明,本文『狂野生活[简繁字幕].Wildlife.2018.CC.BluRay.1080p.DTS-HD.MA5.1.x265.10bit 7.81GB』来源于互联网机器人自动抓取,非本站原创。 浮游电影网不对本文拥有版权,如有侵犯,请联系邮箱:fuyouu#yandex.com[#换成@]投诉。我们会在15个工作日内删除。 但烦请转载时请标明出处:“本文转载于『浮游电影网』,原文地址:https://www.fuyouu.com/14906.html

评论吧骚年!

发表你的见解   

昵称*

E-mail*(建议输入,以便收到博主回复的提示邮件)

验证码*

您可以使用eMule或eMule Mod(Windows)、aMule(Win、Linux、Mac)等软件下载eD2k链接。。
eMule收藏集(.emulecollection)文件是您选中的所有链接的列表文件。eMule可以直接下载它们。
按住SHIFT键选择可以选中多个选择框。
可用文件名和大小选择器来选择文件。
文件名选择器帮您根据文件名称或后缀来选择文件。不分大小写。
符号使用:
和:空格( )、+
不包含:-
或:|
转义:一对英文引号("");
匹配开头:^
匹配结尾:$
例如:
选中所有名称中包含有“eMule”或“0.49c”字眼,但不包含有“exe”字眼的:emule|0.49c -exe
选中所有名称的开头是“eMule”,结尾是“0.49c”的:^emule 0.49c$
选中所有名称中带有“eMule 0.49c”的(必须是“eMule 0.49c”,中间没有别的字符,不能是“eMule fake 0.49c”),需要转义:"emule 0.49c"
大小选择器帮您根据文件大小选择文件。