当前位置: 首页 >> 日韩电影 >> 初恋[中文字幕].First.Love.2021.1080p.BluRay.DTS-HD.MA.5.1.x265-10bit 8.08GB >> 正文

初恋[中文字幕].First.Love.2021.1080p.BluRay.DTS-HD.MA.5.1.x265-10bit 8.08GB

2021年10月12日 13:27:34     电影发布:来源于网络     电影分类:日韩电影     评论(0)    

初恋[中文字幕].First.Love.2021.1080p.BluRay.DTS HD.MA.5.1.x265 10bit 8.08GB 悬疑片 剧情片 日韩电影  第1张

◎译 名 初恋

◎片 名 ファーストラヴ

◎年 代 2021

◎产 地 日本

◎类 别 剧情 / 悬疑

◎语 言 日语

◎上映日期 2021-02-11(日本)

◎IMDb链接 https://www.imdb.com/title/tt11252688/

◎豆瓣评分 6.7/10 (1549人评价)

◎豆瓣链接 https://movie.douban.com/subject/34905613/

◎导 演 堤幸彦 Yukihiko Tsutsumi (id:1041908)

◎编 剧 浅野妙子 Taeko Asano (id:1315425)

岛本理生 Rio Shimamoto (id:1442092)

◎演 员 北川景子 Keiko Kitagawa (id:1023064)

中村伦也 Tomoya Nakamura (id:1275382)

芳根京子 Ky?ko Yoshine (id:1348883)

洼冢洋介 Y?suke Kubozuka (id:1040986)

木村佳乃 Yoshino Kimura (id:1000705)

板尾创路 Itsuji Itao (id:1012727)

高冈早纪 Saki Takaoka (id:1037678)

石田法嗣 Hoshi Ishida (id:1197942)

清原翔 Sh? Kiyohara (id:1377420)

◎标 签 日本 / 北川景子 / 中村伦也 / 日本电影 / 2021 / 悬疑 / 日影 / 堤幸彦

◎简 介

女大学生圣山环菜在主播面试之后,刺杀了身为知名画家的父亲。因为她的外貌姣好,加上被逮捕后抛下的一句:「你们自己去查出我的杀人动机。」使得媒体不断渲染报导,为何前途光明的女儿会杀害了父亲?为何连她自己都不明白原因?

同时,临床心理师真壁由纪受出版社委托,计划将圣山环菜的故事撰写成书,因而开始研究这起事件。一个狐媚般的女孩、感情关系复杂……当周遭人物对环菜的可疑处指证历历时,由纪却发现,在环菜身上有块缺失的关键记忆。若找到记忆中那段初恋,是否就能解开杀父的原因?

  1. ##### MediaInfo ######

  2. General

  3. Unique ID : 167120992725783258304116655242396910962 (0x7DBA5519A6477A51EEC9DB38C7414572)

  4. Complete name : [email protected]DQ.COM.mkv

  5. Format : Matroska

  6. Format version : Version 4

  7. File size : 8.08 GiB

  8. Duration : 1 h 59 min

  9. Overall bit rate mode : Variable

  10. Overall bit rate : 9 704 kb/s

  11. Movie name : First Love 2021 1080p BluRay DTS-HD MA 5.1 [email protected]

  12. Encoded date : UTC 2021-10-11 08:53:55

  13. Writing application : mkvmerge v38.0.0 ('The Silent Type') 64-bit

  14. Writing library : libebml v1.3.9 + libmatroska v1.5.2


  15. Video

  16. ID : 1

  17. Format : HEVC

  18. Format/Info : High Efficiency Video Coding

  19. Format profile : Main [email protected]@High

  20. Codec ID : V_MPEGH/ISO/HEVC

  21. Duration : 1 h 59 min

  22. Bit rate : 6 194 kb/s

  23. Width : 1 920 pixels

  24. Height : 804 pixels

  25. Display aspect ratio : 2.40:1

  26. Frame rate mode : Constant

  27. Frame rate : 23.976 (24000/1001/53354) FPS

  28. Color space : YUV

  29. Chroma subsampling : 4:2:0

  30. Bit depth : 10 bits

  31. Bits/(Pixel*Frame) : 0.167

  32. Stream size : 5.16 GiB (64%)

  33. Title : [email protected]

  34. Writing library : x265 - H.265/HEVC codec

  35. Default : Yes

  36. Forced : No


  37. Audio

  38. ID : 2

  39. Format : DTS XLL

  40. Format/Info : Digital Theater Systems

  41. Commercial name : DTS-HD Master Audio

  42. Codec ID : A_DTS

  43. Duration : 1 h 59 min

  44. Bit rate mode : Variable

  45. Bit rate : 3 476 kb/s

  46. Channel(s) : 6 channels

  47. Channel layout : C L R Ls Rs LFE

  48. Sampling rate : 48.0 kHz

  49. Frame rate : 93.750 FPS (512 SPF)

  50. Bit depth : 24 bits

  51. Compression mode : Lossless

  52. Stream size : 2.89 GiB (36%)

  53. Title : Japanese

  54. Language : Japanese

  55. Default : Yes

  56. Forced : No


  57. Text #1

  58. ID : 3

  59. Format : PGS

  60. Muxing mode : zlib

  61. Codec ID : S_HDMV/PGS

  62. Codec ID/Info : Picture based subtitle format used on BDs/HD-DVDs

  63. Duration : 1 h 57 min

  64. Bit rate : 31.9 kb/s

  65. Count of elements : 2615

  66. Stream size : 26.8 MiB (0%)

  67. Title : CHS

  68. Language : Chinese

  69. Default : Yes

  70. Forced : No


  71. Text #2

  72. ID : 4

  73. Format : PGS

  74. Muxing mode : zlib

  75. Codec ID : S_HDMV/PGS

  76. Codec ID/Info : Picture based subtitle format used on BDs/HD-DVDs

  77. Duration : 1 h 57 min

  78. Bit rate : 34.3 kb/s

  79. Count of elements : 2615

  80. Stream size : 28.7 MiB (0%)

  81. Title : CHT

  82. Language : Chinese

  83. Default : No

  84. Forced : No


  85. Menu

  86. 00:00:00.000 : en:Chapter 01

  87. 00:10:03.228 : en:Chapter 02

  88. 00:24:08.238 : en:Chapter 03

  89. 00:34:58.596 : en:Chapter 04

  90. 00:41:48.131 : en:Chapter 05

  91. 00:56:40.439 : en:Chapter 06

  92. 01:07:00.308 : en:Chapter 07

  93. 01:14:25.211 : en:Chapter 08

  94. 01:26:00.781 : en:Chapter 09

  95. 01:37:30.762 : en:Chapter 10

  96. 01:46:03.190 : en:Chapter 11

  97. 01:53:30.846 : en:Chapter 12




复制代码




文件下载


除非特别注明,本文『初恋[中文字幕].First.Love.2021.1080p.BluRay.DTS-HD.MA.5.1.x265-10bit 8.08GB』来源于互联网机器人自动抓取,非本站原创。 浮游电影网不对本文拥有版权,如有侵犯,请联系邮箱:fuyouu#yandex.com[#换成@]投诉。我们会在15个工作日内删除。 但烦请转载时请标明出处:“本文转载于『浮游电影网』,原文地址:https://5.189.174.242/14905.html

评论吧骚年!

发表你的见解   

昵称*

E-mail*(建议输入,以便收到博主回复的提示邮件)

验证码*

您可以使用eMule或eMule Mod(Windows)、aMule(Win、Linux、Mac)等软件下载eD2k链接。。
eMule收藏集(.emulecollection)文件是您选中的所有链接的列表文件。eMule可以直接下载它们。
按住SHIFT键选择可以选中多个选择框。
可用文件名和大小选择器来选择文件。
文件名选择器帮您根据文件名称或后缀来选择文件。不分大小写。
符号使用:
和:空格( )、+
不包含:-
或:|
转义:一对英文引号("");
匹配开头:^
匹配结尾:$
例如:
选中所有名称中包含有“eMule”或“0.49c”字眼,但不包含有“exe”字眼的:emule|0.49c -exe
选中所有名称的开头是“eMule”,结尾是“0.49c”的:^emule 0.49c$
选中所有名称中带有“eMule 0.49c”的(必须是“eMule 0.49c”,中间没有别的字符,不能是“eMule fake 0.49c”),需要转义:"emule 0.49c"
大小选择器帮您根据文件大小选择文件。