当前位置: 首页 >> 欧美电影 >> 死亡幻觉[简繁字幕].Donnie.Darko.2001.DC.UHD.BluRay.2160p.DTS-HD.MA5.1.x265.10bit.HDR 25.87GB >> 正文

死亡幻觉[简繁字幕].Donnie.Darko.2001.DC.UHD.BluRay.2160p.DTS-HD.MA5.1.x265.10bit.HDR 25.87GB

2021年10月12日 13:16:02     电影发布:来源于网络     电影分类:欧美电影     评论(0)    

死亡幻觉[简繁字幕].Donnie.Darko.2001.DC.UHD.BluRay.2160p.DTS HD.MA5.1.x265.10bit.HDR 25.87GB 科幻片 悬疑片 惊悚片 剧情片 欧美电影  第1张

◎译 名 死亡幻觉 / 怵目惊魂28天(台) / 唐尼?达克

◎片 名 Donnie Darko

◎年 代 2001

◎产 地 美国

◎类 别 剧情 / 科幻 / 悬疑 / 惊悚

◎语 言 英语

◎上映日期 2001-01-19(圣丹斯电影节) / 2001-10-26(美国)

◎IMDb链接 https://www.imdb.com/title/tt0246578/

◎豆瓣评分 7.3/10 (75470人评价)

◎豆瓣链接 https://movie.douban.com/subject/1306662/

◎片 长 113分钟

◎导 演 理查德·凯利 Richard Kelly (id:1000170)

◎编 剧 理查德·凯利 Richard Kelly (id:1000170)

◎演 员 杰克·吉伦哈尔 Jake Gyllenhaal (id:1048002)

霍尔姆斯·奥斯本 Holmes Osborne (id:1129889)

玛吉·吉伦哈尔 Maggie Gyllenhaal (id:1027775)

黛维·切斯 Daveigh Chase (id:1022643)

玛丽·麦克唐纳 Mary McDonnell (id:1044889)

詹姆斯·杜瓦尔 James Duval (id:1055541)

亚瑟·塔谢尔 Arthur Taxier (id:1153686)

帕特里克·斯威兹 Patrick Swayze (id:1022580)

大卫·圣.詹姆斯 David St. James (id:1154210)

Tom Tangen Tom Tangen (id:1050290)

茱莲妮·普迪 Jolene Purdy (id:1317275)

Alex Greenwald Alex Greenwald (id:1094943)

贝丝·格兰特 Beth Grant (id:1049697)

吉娜·马隆 Jena Malone (id:1040982)

塞斯·罗根 Seth Rogen (id:1002668)

诺亚·怀尔 Noah Wyle (id:1017956)

德鲁·巴里摩尔 Drew Barrymore (id:1054525)

Kristina Malota Kristina Malota (id:1120647)

Marina Malota Marina Malota (id:1122858)

泰勒·佩克 Tiler Peck (id:1127162)

Patience Cleveland Patience Cleveland (id:1068250)

凯瑟琳·罗斯 Katharine Ross (id:1007008)

Jack Salvatore Jr. Jack Salvatore Jr. (id:1144038)

李韦弗 Lee Weaver (id:1165018)

菲利斯·里昂斯 Phyllis Lyons (id:1124775)

阿什丽·提斯代尔 Ashley Tisdale (id:1010535)

杰瑞·特雷纳 Jerry Trainor (id:1165192)

琼·布莱尔 Joan Blair (id:1061284)

弗兰·克朗茨 Fran Kranz (id:1113019)

史考蒂·莱文沃斯 Scotty Leavenworth (id:1111032)

乔治·布什 George Bush (id:1018350)

Michael Dukakis Michael Dukakis (id:1081756)

菲尔霍恩 Phil Hawn (id:1101562)

南希·朱沃南 Nancy Juvonen (id:1045141)

迪伊·奥斯汀·罗伯逊 Dee Austin Robertson (id:1025718)

Jack Truman Jack Truman (id:1158118)

南希·朱沃南 Nancy Juvonen (id:1045141)

德鲁·巴里摩尔 Drew Barrymore (id:1054525)

迈克尔·安德鲁斯 Michael Andrews (id:1277258)

Steven Poster Steven Poster (id:1137271)

约瑟夫·米德尔顿 Joseph Middleton (id:1292006)

Michelle Morris Michelle Morris (id:1292545)

艾珀尔·费里 April Ferry (id:1042171)

金伯利·格雷尼 Kimberly Greene (id:1285390)

Cammy R. Langer Cammy R. Langer (id:1289405)

洛瑞·麦考伊-贝尔 Lori McCoy-Bell (id:1291501)

林恩·巴伯 Lynn Barber (id:1277868)

芭芭拉·奥尔维拉 Barbara Olvera (id:1293578)

R. Christopher Biggs R. Christopher Biggs (id:1062839)

Christopher Dusendschon Christopher Dusendschon (id:1180674)

Dennis Fitzsimmons Dennis Fitzsimmons (id:1201221)

D·瓦尔特·卡梅伦 D. Walt Cameron (id:1013305)

David Alexander David Alexander (id:1302497)

Kelly Carlton Kelly Carlton (id:1024638)

Ken Locsmandi Ken Locsmandi (id:1303583)

丹尼·艾夫曼 Danny Elfman (id:1019059)

◎标 签 悬疑 / 科幻 / 美国 / 惊悚 / JakeGyllenhaal / 美国电影 / 2001 / 黑色

◎简 介

丹尼?达可(杰克?盖伦霍尔 饰)患有精神疾病,某天晚 上他受到莫名的召唤,梦游,也因此逃避了一架飞机坠落在他房间天花板上,这样匪夷所思的事故。

自此以后,他的生活就发生了变化,频频出现幻觉,他时常看见一个兔人弗兰克,后者告诉他世界将在28天6小时48分12秒以后毁灭;他得到了一本书,《时空旅行奥义书》,对书中提到的时空旅行、离线宇宙产生了强烈的好奇。

随着世界末日的临近,杰克的生活越来约诡异,他新认识的女朋友和家人也被卷了进去。看来,杰克想实现拯救世界的愿望,需要付出更多的代价。

  1. ##### MediaInfo ######

  2. General

  3. Unique ID : 136847909578243586448364263045712523175 (0x66F3F2DD3D6CDF7ADD1D2F12D0BF2FA7)

  4. Complete name : Donnie.D[email protected]BBQDDQ.COM.mkv

  5. Format : Matroska

  6. Format version : Version 4

  7. File size : 25.9 GiB

  8. Duration : 2 h 13 min

  9. Overall bit rate mode : Variable

  10. Overall bit rate : 27.7 Mb/s

  11. Encoded date : UTC 2021-10-11 04:57:33

  12. Writing application : mkvmerge v49.0.0 ('Sick Of Losing Soulmates') 64-bit

  13. Writing library : libebml v1.4.0 + libmatroska v1.6.1


  14. Video

  15. ID : 1

  16. Format : HEVC

  17. Format/Info : High Efficiency Video Coding

  18. Format profile : Main [email protected]@High

  19. HDR format : SMPTE ST 2086, HDR10 compatible

  20. Codec ID : V_MPEGH/ISO/HEVC

  21. Duration : 2 h 13 min

  22. Bit rate : 24.8 Mb/s

  23. Width : 3 840 pixels

  24. Height : 1 634 pixels

  25. Display aspect ratio : 2.35:1

  26. Frame rate mode : Constant

  27. Frame rate : 23.976 (24000/1001/53354) FPS

  28. Color space : YUV

  29. Chroma subsampling : 4:2:0 (Type 2)

  30. Bit depth : 10 bits

  31. Bits/(Pixel*Frame) : 0.165

  32. Stream size : 23.2 GiB (90%)

  33. Title : HEVC, [email protected]@High, 24/1.001 fps @ 24780 kbps

  34. Writing library : x265 3.4+14-gd419c7152:[Windows][GCC 10.2.0][64 bit] 10bit

  35. Encoding settings : cpuid=533541111039 / frame-threads=4 / numa-pools=20 / wpp / pmode / pme / no-psnr / no-ssim / log-level=2 / input-csp=1 / input-res=3840x1634 / interlace=0 / total-frames=192552 / level-idc=51 / high-tier=1 / uhd-bd=0 / ref=4 / no-allow-non-conformance / repeat-headers / annexb / no-aud / hrd / info / hash=0 / no-temporal-layers / no-open-gop / min-keyint=24 / keyint=240 / gop-lookahead=0 / bframes=8 / b-adapt=2 / b-pyramid / bframe-bias=0 / rc-lookahead=25 / lookahead-slices=0 / NTMzNTQ=uuDQuD2mJt9fsCf / scenecut=40 / hist-scenecut=0 / radl=0 / no-splice / no-intra-refresh / ctu=64 / min-cu-size=8 / no-rect / no-amp / max-tu-size=32 / tu-inter-depth=3 / tu-intra-depth=3 / limit-tu=4 / rdoq-level=2 / dynamic-rd=0.00 / no-ssim-rd / signhide / no-tskip / nr-intra=0 / nr-inter=0 / no-constrained-intra / no-strong-intra-smoothing / max-merge=4 / limit-refs=1 / limit-modes / me=3 / subme=4 / merange=25 / temporal-mvp / no-frame-dup / no-hme / weightp / weightb / no-analyze-src-pics / deblock=-3:-3 / no-sao / no-sao-non-deblock / rd=6 / selective-sao=0 / no-early-skip / rskip / no-fast-intra / no-tskip-fast / no-cu-lossless / b-intra / no-splitrd-skip / rdpenalty=0 / psy-rd=2.00 / psy-rdoq=1.00 / no-rd-refine / no-lossless / cbqpoffs=0 / crqpoffs=0 / rc=crf / crf=19.5 / qcomp=0.65 / qpstep=4 / stats-write=0 / stats-read=0 / vbv-maxrate=160000 / vbv-bufsize=160000 / vbv-init=0.9 / crf-max=0.0 / crf-min=0.0 / ipratio=1.30 / pbratio=1.20 / aq-mode=3 / aq-strength=0.85 / cutree / zone-count=0 / no-strict-cbr / qg-size=32 / no-rc-grain / qpmax=69 / qpmin=0 / no-const-vbv / sar=1 / overscan=0 / videoformat=5 / range=0 / colorprim=9 / transfer=16 / colormatrix=9 / chromaloc=1 / chromaloc-top=2 / chromaloc-bottom=2 / display-window=0 / master-display=G(13250,34500)B(7500,3000)R(34000,16000)WP(15635,16450)L(10000000,10) / cll=0,0 / min-luma=0 / max-luma=1023 / log2-max-poc-lsb=8 / vui-timing-info / vui-hrd-info / slices=1 / no-opt-qp-pps / no-opt-ref-list-length-pps / no-multi-pass-opt-rps / scenecut-bias=0.05 / hist-threshold=0.03 / no-opt-cu-delta-qp / no-aq-motion / hdr10 / hdr10-opt / no-dhdr10-opt / no-idr-recovery-sei / analysis-reuse-level=0 / analysis-save-reuse-level=0 / analysis-load-reuse-level=0 / scale-factor=0 / refine-intra=0 / refine-inter=0 / refine-mv=1 / refine-ctu-distortion=0 / no-limit-sao / ctu-info=0 / no-lowpass-dct / refine-analysis-type=0 / copy-pic=1 / max-ausize-factor=1.0 / no-dynamic-refine / no-single-sei / no-hevc-aq / no-svt / no-field / qp-adaptation-range=1.00 / no-scenecut-aware-qpconformance-window-offsets / right=0 / bottom=0 / NTMzNTQ= / decoder-max-rate=0

  36. Language : English

  37. Default : Yes

  38. Forced : No

  39. Color range : Limited

  40. Color primaries : BT.2020

  41. Transfer characteristics : PQ

  42. Matrix coefficients : BT.2020 non-constant

  43. Mastering display color primaries : Display P3

  44. Mastering display luminance : min: 0.0010 cd/m2, max: 1000 cd/m2


  45. Audio #1

  46. ID : 2

  47. Format : DTS XLL

  48. Format/Info : Digital Theater Systems

  49. Commercial name : DTS-HD Master Audio

  50. Codec ID : A_DTS

  51. Duration : 2 h 13 min

  52. Bit rate mode : Variable

  53. Bit rate : 2 542 kb/s

  54. Channel(s) : 6 channels

  55. Channel layout : C L R Ls Rs LFE

  56. Sampling rate : 48.0 kHz

  57. Frame rate : 93.750 FPS (512 SPF)

  58. Bit depth : 24 bits

  59. Compression mode : Lossless

  60. Stream size : 2.38 GiB (9%)

  61. Title : English DTS-HD Master Audio 5.1 @ 2542 kbps

  62. Language : English

  63. Default : Yes

  64. Forced : No


  65. Audio #2

  66. ID : 3

  67. Format : AC-3

  68. Format/Info : Audio Coding 3

  69. Commercial name : Dolby Digital

  70. Codec ID : A_AC3

  71. Duration : 2 h 13 min

  72. Bit rate mode : Constant

  73. Bit rate : 192 kb/s

  74. Channel(s) : 2 channels

  75. Channel layout : L R

  76. Sampling rate : 48.0 kHz

  77. Frame rate : 31.250 FPS (1536 SPF)

  78. Compression mode : Lossy

  79. Stream size : 184 MiB (1%)

  80. Title : English Dolby Digital Audio 2.0 @ 192 kbps Commentary

  81. Language : English

  82. Service kind : Complete Main

  83. Default : No

  84. Forced : No


  85. Text #1

  86. ID : 4

  87. Format : PGS

  88. Codec ID : S_HDMV/PGS

  89. Codec ID/Info : Picture based subtitle format used on BDs/HD-DVDs

  90. Duration : 2 h 13 min

  91. Bit rate : 26.1 kb/s

  92. Count of elements : 2204

  93. Stream size : 24.9 MiB (0%)

  94. Title : Eng/SUP

  95. Language : English

  96. Default : No

  97. Forced : No


  98. Text #2

  99. ID : 5

  100. Format : PGS

  101. Codec ID : S_HDMV/PGS

  102. Codec ID/Info : Picture based subtitle format used on BDs/HD-DVDs

  103. Duration : 2 h 11 min

  104. Bit rate : 22.9 kb/s

  105. Count of elements : 2177

  106. Stream size : 21.5 MiB (0%)

  107. Title : Chs/SUP 简体

  108. Language : Chinese

  109. Default : Yes

  110. Forced : No


  111. Text #3

  112. ID : 6

  113. Format : PGS

  114. Codec ID : S_HDMV/PGS

  115. Codec ID/Info : Picture based subtitle format used on BDs/HD-DVDs

  116. Duration : 2 h 11 min

  117. Bit rate : 23.3 kb/s

  118. Count of elements : 2177

  119. Stream size : 21.9 MiB (0%)

  120. Title : Cht/SUP 繁体

  121. Language : Chinese

  122. Default : No

  123. Forced : No


  124. Text #4

  125. ID : 7

  126. Format : PGS

  127. Codec ID : S_HDMV/PGS

  128. Codec ID/Info : Picture based subtitle format used on BDs/HD-DVDs

  129. Duration : 2 h 12 min

  130. Bit rate : 36.8 kb/s

  131. Count of elements : 2034

  132. Stream size : 35.0 MiB (0%)

  133. Title : Chs/SUP 简英双语

  134. Language : Chinese

  135. Default : No

  136. Forced : No


  137. Text #5

  138. ID : 8

  139. Format : PGS

  140. Codec ID : S_HDMV/PGS

  141. Codec ID/Info : Picture based subtitle format used on BDs/HD-DVDs

  142. Duration : 2 h 12 min

  143. Bit rate : 37.2 kb/s

  144. Count of elements : 2034

  145. Stream size : 35.4 MiB (0%)

  146. Title : Cht/SUP 繁英双语

  147. Language : Chinese

  148. Default : No

  149. Forced : No


  150. Menu

  151. 00:00:00.000 : en:第 01 章

  152. 00:09:38.034 : en:第 02 章

  153. 00:18:11.882 : en:第 03 章

  154. 00:27:07.834 : en:第 04 章

  155. 00:38:41.402 : en:第 05 章

  156. 00:50:58.346 : en:第 06 章

  157. 01:05:16.996 : en:第 07 章

  158. 01:18:40.090 : en:第 08 章

  159. 01:29:48.966 : en:第 09 章

  160. 01:44:39.146 : en:第 10 章

  161. 01:51:09.371 : en:第 11 章

  162. 02:03:17.806 : en:第 12 章




复制代码



文件下载


除非特别注明,本文『死亡幻觉[简繁字幕].Donnie.Darko.2001.DC.UHD.BluRay.2160p.DTS-HD.MA5.1.x265.10bit.HDR 25.87GB』来源于互联网机器人自动抓取,非本站原创。 浮游电影网不对本文拥有版权,如有侵犯,请联系邮箱:fuyouu#yandex.com[#换成@]投诉。我们会在15个工作日内删除。 但烦请转载时请标明出处:“本文转载于『浮游电影网』,原文地址:https://www.fuyouu.com/14897.html

评论吧骚年!

发表你的见解   

昵称*

E-mail*(建议输入,以便收到博主回复的提示邮件)

验证码*

您可以使用eMule或eMule Mod(Windows)、aMule(Win、Linux、Mac)等软件下载eD2k链接。。
eMule收藏集(.emulecollection)文件是您选中的所有链接的列表文件。eMule可以直接下载它们。
按住SHIFT键选择可以选中多个选择框。
可用文件名和大小选择器来选择文件。
文件名选择器帮您根据文件名称或后缀来选择文件。不分大小写。
符号使用:
和:空格( )、+
不包含:-
或:|
转义:一对英文引号("");
匹配开头:^
匹配结尾:$
例如:
选中所有名称中包含有“eMule”或“0.49c”字眼,但不包含有“exe”字眼的:emule|0.49c -exe
选中所有名称的开头是“eMule”,结尾是“0.49c”的:^emule 0.49c$
选中所有名称中带有“eMule 0.49c”的(必须是“eMule 0.49c”,中间没有别的字符,不能是“eMule fake 0.49c”),需要转义:"emule 0.49c"
大小选择器帮您根据文件大小选择文件。