当前位置: 首页 >> 日韩电影 >> 椿三十郎[简繁字幕].Sanjuro.1962.CC.BluRay.1080p.DTS-HD.MA3.0.x265.10bit 10.10GB >> 正文

椿三十郎[简繁字幕].Sanjuro.1962.CC.BluRay.1080p.DTS-HD.MA3.0.x265.10bit 10.10GB

2021年10月12日 13:10:24     电影发布:来源于网络     电影分类:日韩电影     评论(0)    

椿三十郎[简繁字幕].Sanjuro.1962.CC.BluRay.1080p.DTS HD.MA3.0.x265.10bit 10.10GB 犯罪片 动作片 惊悚片 喜剧片 剧情片 日韩电影  第1张

◎译 名 椿三十郎 / 大剑客 / 穿心剑 / 夺命剑 / Sanjuro

◎年 代 1962

◎产 地 日本

◎类 别 剧情 / 喜剧 / 动作 / 惊悚 / 犯罪

◎语 言 日语

◎上映日期 1962-01-01(日本)

◎IMDb链接 https://www.imdb.com/title/tt0056443/

◎豆瓣评分 8.8/10 (23489人评价)

◎豆瓣链接 https://movie.douban.com/subject/1293310/

◎片 长 96分钟

◎导 演 黑泽明 Akira Kurosawa (id:1054529)

◎编 剧 菊岛隆三 Ry?z? Kikushima (id:1288522)

小国英雄 Hideo Oguni (id:1131182)

黑泽明 Akira Kurosawa (id:1054529)

山本周五郎 Sh?gor? Yamamoto (id:1166785)

◎演 员 三船敏郎 Toshir? Mifune (id:1056027)

仲代达矢 Tatsuya Nakadai (id:1036950)

小林桂树 Keiju Kobayashi (id:1040947)

加山雄三 Y?z? Kayama (id:1110897)

团令子 Reiko Dan (id:1001659)

志村乔 Takashi Shimura (id:1032411)

藤原釜足 Kamatari Fujiwara (id:1016877)

入江隆子 Takako Irie (id:1113618)

清水将夫 Masao Shimizu (id:1029942)

伊藤雄之助 Y?nosuke It? (id:1025631)

久保明 Akira Kubo (id:1037923)

太刀川宽 Hiroshi Tachikawa (id:1359994)

土屋嘉男 Yoshio Tsuchiya (id:1048479)

田中邦卫 Kunie Tanaka (id:1040946)

江原达怡 Tatsuyoshi Ehara (id:1003872)

平田昭彦 Akihiko Hirata (id:1016916)

小川虎之助 Toranosuke Ogawa (id:1035726)

堺左千夫 Sachio Sakai (id:1008508)

佐田丰 Yutaka Sada (id:1003718)

大友伸 Shin ?tomo (id:1135861)

广濑正一 Sh?ichi Hirose (id:1094252)

伊藤实 Minoru It? (id:1111572)

樋口年子 Yukiko Horiguchi (id:1348922)

菊岛隆三 Ry?z? Kikushima (id:1288522)

森谷司郎 Shir? Moritani (id:1133112)

◎标 签 黑泽明 / 日本 / 三船敏郎 / 武士 / 日本电影 / 动作 / 仲代达矢 / 1962

◎简 介

郊外神社的神殿里,九位年轻武士在秘密开会,城代家老的外甥井坂(加山雄三饰)准备向大目付菊井求助整治内部问题。但外貌邋遢的武士椿三十郎(三船敏郎饰)出现,告诉他们菊井才是背后的黑手。果然,神殿很快被大目付手下团团围住,三十郎出手替年轻人解危,而室户半兵卫(仲代达矢饰)却欣赏三十郎的身手,欢迎他加入。之后,三十郎与九人组去找城代家老,却发现晚了一步已被绑架。

他们到了武士寺田家中再谋营救,隔壁就是敌人所在的黑藤府。菊井一边监禁了城代家老,另一边又想着引出年轻武士们出洞,幸得三十郎所救。在精妙计谋下,解救成功。但室户半兵卫却不放过三十郎,较量的胜负就在一瞬间。

  1. ##### MediaInfo ######

  2. General

  3. Unique ID : 281646389217780690117562583671555787253 (0xD3E31F18CF2047C1A08882B25B7889F5)

  4. Complete name : [email protected]Q.COM.mkv

  5. Format : Matroska

  6. Format version : Version 4

  7. File size : 10.1 GiB

  8. Duration : 1 h 35 min

  9. Overall bit rate mode : Variable

  10. Overall bit rate : 15.1 Mb/s

  11. Encoded date : UTC 2021-10-11 02:21:35

  12. Writing application : mkvmerge v49.0.0 ('Sick Of Losing Soulmates') 64-bit

  13. Writing library : libebml v1.4.0 + libmatroska v1.6.1


  14. Video

  15. ID : 1

  16. Format : HEVC

  17. Format/Info : High Efficiency Video Coding

  18. Format profile : Main [email protected]@High

  19. Codec ID : V_MPEGH/ISO/HEVC

  20. Duration : 1 h 35 min

  21. Bit rate : 12.8 Mb/s

  22. Width : 1 920 pixels

  23. Height : 820 pixels

  24. Display aspect ratio : 2.35:1

  25. Frame rate mode : Constant

  26. Frame rate : 23.976 (24000/1001/53354) FPS

  27. Color space : YUV

  28. Chroma subsampling : 4:2:0

  29. Bit depth : 10 bits

  30. Bits/(Pixel*Frame) : 0.340

  31. Stream size : 8.60 GiB (85%)

  32. Title : HEVC, [email protected]@High, 24/1.001 fps @ 12825 kbps

  33. Writing library : x265 3.4+14-gd419c7152:[Windows][GCC 10.2.0][64 bit] 10bit

  34. Encoding settings : cpuid=533541111039 / frame-threads=4 / numa-pools=16 / wpp / pmode / pme / no-psnr / no-ssim / log-level=2 / input-csp=1 / input-res=1920x820 / interlace=0 / total-frames=138049 / level-idc=51 / high-tier=1 / uhd-bd=0 / ref=5 / no-allow-non-conformance / no-repeat-headers / annexb / no-aud / no-hrd / info / hash=0 / no-temporal-layers / open-gop / min-keyint=24 / keyint=240 / gop-lookahead=0 / bframes=6 / b-adapt=2 / b-pyramid / bframe-bias=0 / rc-lookahead=40 / lookahead-slices=0 / NTMzNTQ=uuDQuD2mJt9fsCf / scenecut=40 / hist-scenecut=0 / radl=0 / no-splice / no-intra-refresh / ctu=32 / min-cu-size=8 / no-rect / no-amp / max-tu-size=32 / tu-inter-depth=3 / tu-intra-depth=3 / limit-tu=4 / rdoq-level=2 / dynamic-rd=0.00 / no-ssim-rd / signhide / no-tskip / nr-intra=0 / nr-inter=0 / no-constrained-intra / no-strong-intra-smoothing / max-merge=4 / limit-refs=1 / limit-modes / me=3 / subme=4 / merange=25 / temporal-mvp / no-frame-dup / no-hme / weightp / weightb / no-analyze-src-pics / deblock=-3:-3 / no-sao / no-sao-non-deblock / rd=6 / selective-sao=0 / no-early-skip / rskip / no-fast-intra / no-tskip-fast / no-cu-lossless / b-intra / no-splitrd-skip / rdpenalty=0 / psy-rd=2.00 / psy-rdoq=1.00 / no-rd-refine / no-lossless / cbqpoffs=0 / crqpoffs=0 / rc=crf / crf=19.5 / qcomp=0.65 / qpstep=4 / stats-write=0 / stats-read=0 / vbv-maxrate=80000 / vbv-bufsize=80000 / vbv-init=0.9 / crf-max=0.0 / crf-min=0.0 / ipratio=1.40 / pbratio=1.30 / aq-mode=2 / aq-strength=0.85 / cutree / zone-count=0 / no-strict-cbr / qg-size=32 / no-rc-grain / qpmax=69 / qpmin=0 / no-const-vbv / sar=1 / overscan=0 / videoformat=5 / range=0 / colorprim=1 / transfer=1 / colormatrix=1 / chromaloc=0 / display-window=0 / cll=0,0 / min-luma=0 / max-luma=1023 / log2-max-poc-lsb=8 / vui-timing-info / vui-hrd-info / slices=1 / no-opt-qp-pps / no-opt-ref-list-length-pps / no-multi-pass-opt-rps / scenecut-bias=0.05 / hist-threshold=0.03 / no-opt-cu-delta-qp / no-aq-motion / no-hdr10 / no-hdr10-opt / no-dhdr10-opt / no-idr-recovery-sei / analysis-reuse-level=0 / analysis-save-reuse-level=0 / analysis-load-reuse-level=0 / scale-factor=0 / refine-intra=0 / refine-inter=0 / refine-mv=1 / refine-ctu-distortion=0 / no-limit-sao / ctu-info=0 / no-lowpass-dct / refine-analysis-type=0 / copy-pic=1 / max-ausize-factor=1.0 / no-dynamic-refine / no-single-sei / no-hevc-aq / no-svt / no-field / qp-adaptation-range=1.00 / no-scenecut-aware-qpconformance-window-offsets / right=0 / bottom=0 / NTMzNTQ= / decoder-max-rate=0

  35. Language : English

  36. Default : Yes

  37. Forced : No

  38. Color range : Limited

  39. Color primaries : BT.709

  40. Transfer characteristics : BT.709

  41. Matrix coefficients : BT.709


  42. Audio

  43. ID : 2

  44. Format : DTS XLL

  45. Format/Info : Digital Theater Systems

  46. Commercial name : DTS-HD Master Audio

  47. Codec ID : A_DTS

  48. Duration : 1 h 35 min

  49. Bit rate mode : Variable

  50. Bit rate : 2 173 kb/s

  51. Channel(s) : 3 channels

  52. Channel layout : C L R

  53. Sampling rate : 48.0 kHz

  54. Frame rate : 93.750 FPS (512 SPF)

  55. Bit depth : 24 bits

  56. Compression mode : Lossless

  57. Stream size : 1.46 GiB (14%)

  58. Title : Japanese DTS-HD Master Audio 3.0 @ 2173 kbps

  59. Language : Japanese

  60. Default : Yes

  61. Forced : No


  62. Text #1

  63. ID : 3

  64. Format : PGS

  65. Codec ID : S_HDMV/PGS

  66. Codec ID/Info : Picture based subtitle format used on BDs/HD-DVDs

  67. Duration : 1 h 35 min

  68. Bit rate : 31.7 kb/s

  69. Count of elements : 1742

  70. Stream size : 21.7 MiB (0%)

  71. Title : Eng/SUP

  72. Language : English

  73. Default : No

  74. Forced : No


  75. Text #2

  76. ID : 4

  77. Format : PGS

  78. Codec ID : S_HDMV/PGS

  79. Codec ID/Info : Picture based subtitle format used on BDs/HD-DVDs

  80. Duration : 1 h 34 min

  81. Bit rate : 12.3 kb/s

  82. Count of elements : 1702

  83. Stream size : 8.31 MiB (0%)

  84. Title : Chs/SUP 简体

  85. Language : Chinese

  86. Default : Yes

  87. Forced : No


  88. Text #3

  89. ID : 5

  90. Format : PGS

  91. Codec ID : S_HDMV/PGS

  92. Codec ID/Info : Picture based subtitle format used on BDs/HD-DVDs

  93. Duration : 1 h 34 min

  94. Bit rate : 12.7 kb/s

  95. Count of elements : 1702

  96. Stream size : 8.62 MiB (0%)

  97. Title : Cht/SUP 繁体

  98. Language : Chinese

  99. Default : No

  100. Forced : No


  101. Menu

  102. 00:00:00.000 : en:第 01 章

  103. 00:04:07.706 : en:第 02 章

  104. 00:12:29.916 : en:第 03 章

  105. 00:15:22.463 : en:第 04 章

  106. 00:21:25.534 : en:第 05 章

  107. 00:25:46.003 : en:第 06 章

  108. 00:31:03.653 : en:第 07 章

  109. 00:38:40.985 : en:第 08 章

  110. 00:39:20.066 : en:第 09 章

  111. 00:41:26.567 : en:第 10 章

  112. 00:43:45.373 : en:第 11 章

  113. 00:47:07.324 : en:第 12 章

  114. 00:57:40.916 : en:第 13 章

  115. 00:59:48.251 : en:第 14 章

  116. 01:04:42.378 : en:第 15 章

  117. 01:06:22.395 : en:第 16 章

  118. 01:14:12.865 : en:第 17 章

  119. 01:20:14.351 : en:第 18 章

  120. 01:27:46.094 : en:第 19 章

  121. 01:31:11.549 : en:第 20 章




复制代码




文件下载


除非特别注明,本文『椿三十郎[简繁字幕].Sanjuro.1962.CC.BluRay.1080p.DTS-HD.MA3.0.x265.10bit 10.10GB』来源于互联网机器人自动抓取,非本站原创。 浮游电影网不对本文拥有版权,如有侵犯,请联系邮箱:fuyouu#yandex.com[#换成@]投诉。我们会在15个工作日内删除。 但烦请转载时请标明出处:“本文转载于『浮游电影网』,原文地址:https://www.fuyouu.com/14893.html

评论吧骚年!

发表你的见解   

昵称*

E-mail*(建议输入,以便收到博主回复的提示邮件)

验证码*

您可以使用eMule或eMule Mod(Windows)、aMule(Win、Linux、Mac)等软件下载eD2k链接。。
eMule收藏集(.emulecollection)文件是您选中的所有链接的列表文件。eMule可以直接下载它们。
按住SHIFT键选择可以选中多个选择框。
可用文件名和大小选择器来选择文件。
文件名选择器帮您根据文件名称或后缀来选择文件。不分大小写。
符号使用:
和:空格( )、+
不包含:-
或:|
转义:一对英文引号("");
匹配开头:^
匹配结尾:$
例如:
选中所有名称中包含有“eMule”或“0.49c”字眼,但不包含有“exe”字眼的:emule|0.49c -exe
选中所有名称的开头是“eMule”,结尾是“0.49c”的:^emule 0.49c$
选中所有名称中带有“eMule 0.49c”的(必须是“eMule 0.49c”,中间没有别的字符,不能是“eMule fake 0.49c”),需要转义:"emule 0.49c"
大小选择器帮您根据文件大小选择文件。