当前位置: 首页 >> 海外电影 >> 音乐室[中文字幕].The.Music.Room.1958.1080p.BluRay.x265.10bit.FLAC.1.0 9.29GB >> 正文

音乐室[中文字幕].The.Music.Room.1958.1080p.BluRay.x265.10bit.FLAC.1.0 9.29GB

2021年10月12日 13:09:15     电影发布:来源于网络     电影分类:海外电影     评论(0)    

音乐室[中文字幕].The.Music.Room.1958.1080p.BluRay.x265.10bit.FLAC.1.0 9.29GB 音乐片 剧情片 海外电影  第1张

◎译 名 音乐室 / The Music Room / Jalsaghar

◎片 名 ??????

◎年 代 1958

◎产 地 印度

◎类 别 剧情 / 音乐

◎语 言 孟加拉语

◎上映日期 1958

◎IMDb链接 https://www.imdb.com/title/tt0051792/

◎豆瓣评分 8.1/10 (963人评价)

◎豆瓣链接 https://movie.douban.com/subject/1440613/

◎片 长 100 分钟

◎导 演 萨蒂亚吉特·雷伊 Satyajit Ray (id:1048247)

◎编 剧 萨蒂亚吉特·雷伊 Satyajit Ray (id:1048247)

◎演 员 皮纳基·森古普塔 Pinaki Sengupta (id:1363991)

甘加帕达·巴苏 Gangapada Basu (id:1355957)

比斯敏拉·汗 Bismillah Khan (id:1106110)

罗斯汉·库玛丽 Roshan Kumari (id:1417873)

萨蒂亚吉特·雷伊 Satyajit Ray (id:1048247)

Ustad Vilayat Khan Ustad Vilayat Khan (id:1052632)

苏布拉塔·米特拉 Subrata Mitra (id:1029877)

班塞·查德拉古普塔 Bansi Chandragupta (id:1280458)

◎标 签 印度 / 萨蒂亚吉特·雷伊 / 音乐 / 印度电影 / 1958 / 1950s / CC / Satyajit_Ray

◎简 介

雷艾(Chhabi Biswas 饰)出生于富贵之家中,世世代代都是坐拥着土地的地主阶级,雷艾自然继承了家族的财产,可是,他的心思却并不在好好经营这份财产之上。雷艾对音乐有着狂热的喜爱,常常斥巨资举办音乐会,请来大师名流进行演奏。就这样,上一代积攒下来的财富就在雷艾的一次又一次挥霍中越来越少。

马兴(Gangapada Basu 饰)是雷艾的死对头,他同样是一名音乐爱好者,两人互相攀比音乐会的排场,互相质疑彼此对于音乐的品味。为了战胜马兴,雷艾不顾拮据的经济状况大肆挥霍,甚至为了满足自己的虚荣而付出了家人的性命作为代价。最终,雷艾家破人亡,濒临疯狂的他在散尽了最后一笔钱后选择了死亡。

  1. ##### MediaInfo ######

  2. General

  3. Unique ID : 143872318351749412607548823653988622587 (0x6C3CCCF4A8C848B9FA0B925E70EEE0FB)

  4. Complete name : [email protected]Q.COM.mkv

  5. Format : Matroska

  6. Format version : Version 4

  7. File size : 9.28 GiB

  8. Duration : 1 h 38 min

  9. Overall bit rate mode : Variable

  10. Overall bit rate : 13.4 Mb/s

  11. Movie name : The Music Room

  12. Encoded date : UTC 2021-10-10 04:39:45

  13. Writing application : mkvmerge v61.0.0 ('So') 64-bit

  14. Writing library : libebml v1.4.2 + libmatroska v1.6.4

  15. Cover : Yes

  16. Attachments : cover.jpg


  17. Video

  18. ID : 1

  19. Format : HEVC

  20. Format/Info : High Efficiency Video Coding

  21. Format profile : Main [email protected]@Main

  22. Codec ID : V_MPEGH/ISO/HEVC

  23. Duration : 1 h 38 min

  24. Bit rate : 12.9 Mb/s

  25. Width : 1 440 pixels

  26. Height : 1 080 pixels

  27. Display aspect ratio : 4:3

  28. Frame rate mode : Constant

  29. Frame rate : 23.976 (24000/1001/53354) FPS

  30. Color space : YUV

  31. Chroma subsampling : 4:2:0

  32. Bit depth : 10 bits

  33. Bits/(Pixel*Frame) : 0.346

  34. Stream size : 8.91 GiB (96%)

  35. Writing library : x265 3.5+2-g2b25c9ba0+45:[Windows][GCC 10.2.0][64 bit] Yuuki 10bit+8bit+12bit

  36. Encoding settings : rc=crf / crf=21.5000 / qcomp=0.70 / qpstep=4 / stats-write=0 / stats-read=0 / no-lossless / no-cu-lossless / aq-mode=3 / aq-strength=0.70 / cbqpoffs=0 / crqpoffs=0 / ipratio=1.40 / pbratio=1.30 / psy-rd=2.00 / psy-rdoq=0.00 / deblock=0:0 / ref=6 / limit-refs=1 / no-limit-modes / bframes=8 / b-adapt=2 / bframe-bias=0 / b-pyramid / b-intra / weightp / weightb / min-keyint=24 / max-keyint=240 / rc-lookahead=24 / gop-lookahead=0 / NTMzNTQ=uuDQuD2mJt9fsCf / scenecut=40 / hist-scenecut=0 / radl=0 / max-cu-size=64 / min-cu-size=8 / me=3 / subme=7 / merange=48 / rdoq-level=0 / rd=4 / rdpenalty=0 / dynamic-rd=0.00 / no-rd-refine / ----- / cutree / sao / no-rect / no-amp / no-open-gop / wpp / no-pmode / pme / no-psnr / no-ssim / nr-intra=0 / nr-inter=0 / no-constrained-intra / no-strong-intra-smoothing / max-tu-size=32 / tu-inter-depth=1 / tu-intra-depth=1 / limit-tu=0 / qg-size=32 / qpmax=69 / qpmin=0 / ----- / cpuid=533541111039 / frame-threads=4 / numa-pools=+ / log-level=2 / input-csp=1 / input-res=1440x1080 / interlace=0 / level-idc=0 / high-tier=1 / uhd-bd=0 / no-allow-non-conformance / no-repeat-headers / aud / no-hrd / info / hash=0 / no-temporal-layers / lookahead-slices=0 / no-splice / no-intra-refresh / no-ssim-rd / signhide / no-tskip / max-merge=3 / temporal-mvp / no-frame-dup / no-hme / no-analyze-src-pics / no-sao-non-deblock / selective-sao=4 / early-skip / rskip / no-fast-intra / no-tskip-fast / no-splitrd-skip / zone-count=0 / no-strict-cbr / no-rc-grain / no-const-vbv / sar=0 / overscan=0 / videoformat=5 / range=0 / colorprim=2 / transfer=2 / colormatrix=2 / chromaloc=0 / display-window=0 / cll=0,0 / min-luma=0 / max-luma=1023 / log2-max-poc-lsb=8 / vui-timing-info / vui-hrd-info / slices=1 / no-opt-qp-pps / no-opt-ref-list-length-pps / no-multi-pass-opt-rps / scenecut-bias=0.05 / hist-threshold=0.03 / no-opt-cu-delta-qp / no-aq-motion / no-hdr10 / no-hdr10-opt / no-dhdr10-opt / no-idr-recovery-sei / analysis-reuse-level=0 / analysis-save-reuse-level=0 / analysis-load-reuse-level=0 / scale-factor=0 / refine-intra=0 / refine-inter=0 / refine-mv=1 / refine-ctu-distortion=0 / no-limit-sao / ctu-info=0 / no-lowpass-dct / refine-analysis-type=0 / copy-pic=1 / max-ausize-factor=1.0 / no-dynamic-refine / no-single-sei / no-hevc-aq / no-svt / no-field / qp-adaptation-range=1.00 / scenecut-aware-qp=0conformance-window-offsets / right=0 / bottom=0 / NTMzNTQ= / decoder-max-rate=0 / no-vbv-live-multi-pass

  37. Default : Yes

  38. Forced : No


  39. Audio

  40. ID : 2

  41. Format : FLAC

  42. Format/Info : Free Lossless Audio Codec

  43. Codec ID : A_FLAC

  44. Duration : 1 h 38 min

  45. Bit rate mode : Variable

  46. Bit rate : 527 kb/s

  47. Channel(s) : 1 channel

  48. Channel layout : C

  49. Sampling rate : 48.0 kHz

  50. Frame rate : 11.719 FPS (4096 SPF)

  51. Bit depth : 24 bits

  52. Compression mode : Lossless

  53. Stream size : 373 MiB (4%)

  54. Writing library : libFLAC 1.2.1 (UTC 2007-09-17)

  55. Language : Bengali

  56. Default : Yes

  57. Forced : No


  58. Text #1

  59. ID : 3

  60. ID in the original source medium : 4609 (0x1201)

  61. Format : PGS

  62. Muxing mode : zlib

  63. Codec ID : S_HDMV/PGS

  64. Codec ID/Info : Picture based subtitle format used on BDs/HD-DVDs

  65. Duration : 1 h 38 min

  66. Bit rate : 8 585 b/s

  67. Count of elements : 973

  68. Stream size : 6.02 MiB (0%)

  69. Title : chs

  70. Language : Chinese

  71. Default : Yes

  72. Forced : No

  73. Original source medium : Blu-ray


  74. Text #2

  75. ID : 4

  76. ID in the original source medium : 4610 (0x1202)

  77. Format : PGS

  78. Muxing mode : zlib

  79. Codec ID : S_HDMV/PGS

  80. Codec ID/Info : Picture based subtitle format used on BDs/HD-DVDs

  81. Duration : 1 h 38 min

  82. Bit rate : 8 722 b/s

  83. Count of elements : 973

  84. Stream size : 6.12 MiB (0%)

  85. Title : cht

  86. Language : Chinese

  87. Default : No

  88. Forced : No

  89. Original source medium : Blu-ray


  90. Text #3

  91. ID : 5

  92. ID in the original source medium : 4608 (0x1200)

  93. Format : PGS

  94. Muxing mode : zlib

  95. Codec ID : S_HDMV/PGS

  96. Codec ID/Info : Picture based subtitle format used on BDs/HD-DVDs

  97. Duration : 1 h 38 min

  98. Bit rate : 13.4 kb/s

  99. Count of elements : 956

  100. Stream size : 9.42 MiB (0%)

  101. Title : eng

  102. Language : English

  103. Default : No

  104. Forced : No

  105. Original source medium : Blu-ray


  106. Menu

  107. 00:00:00.000 : Chapter 01

  108. 00:07:55.099 : Chapter 02

  109. 00:13:48.661 : Chapter 03

  110. 00:18:43.288 : Chapter 04

  111. 00:23:38.208 : Chapter 05

  112. 00:29:26.765 : Chapter 06

  113. 00:34:00.872 : Chapter 07

  114. 00:37:36.963 : Chapter 08

  115. 00:39:40.878 : Chapter 09

  116. 00:47:50.075 : Chapter 10

  117. 00:51:38.804 : Chapter 11

  118. 00:58:36.554 : Chapter 12

  119. 01:04:18.354 : Chapter 13

  120. 01:12:39.646 : Chapter 14

  121. 01:17:31.605 : Chapter 15

  122. 01:22:58.974 : Chapter 16

  123. 01:27:48.179 : Chapter 17

  124. 01:32:23.579 : Chapter 18


文件下载


除非特别注明,本文『音乐室[中文字幕].The.Music.Room.1958.1080p.BluRay.x265.10bit.FLAC.1.0 9.29GB』来源于互联网机器人自动抓取,非本站原创。 浮游电影网不对本文拥有版权,如有侵犯,请联系邮箱:fuyouu#yandex.com[#换成@]投诉。我们会在15个工作日内删除。 但烦请转载时请标明出处:“本文转载于『浮游电影网』,原文地址:https://www.fuyouu.com/14892.html

评论吧骚年!

发表你的见解   

昵称*

E-mail*(建议输入,以便收到博主回复的提示邮件)

验证码*

您可以使用eMule或eMule Mod(Windows)、aMule(Win、Linux、Mac)等软件下载eD2k链接。。
eMule收藏集(.emulecollection)文件是您选中的所有链接的列表文件。eMule可以直接下载它们。
按住SHIFT键选择可以选中多个选择框。
可用文件名和大小选择器来选择文件。
文件名选择器帮您根据文件名称或后缀来选择文件。不分大小写。
符号使用:
和:空格( )、+
不包含:-
或:|
转义:一对英文引号("");
匹配开头:^
匹配结尾:$
例如:
选中所有名称中包含有“eMule”或“0.49c”字眼,但不包含有“exe”字眼的:emule|0.49c -exe
选中所有名称的开头是“eMule”,结尾是“0.49c”的:^emule 0.49c$
选中所有名称中带有“eMule 0.49c”的(必须是“eMule 0.49c”,中间没有别的字符,不能是“eMule fake 0.49c”),需要转义:"emule 0.49c"
大小选择器帮您根据文件大小选择文件。