当前位置: 首页 >> 欧美电影 >> 飞越迷城[中文字幕].Ishtar.1987.1080p.BluRay.x265.10bit.DTS 8.39GB >> 正文

飞越迷城[中文字幕].Ishtar.1987.1080p.BluRay.x265.10bit.DTS 8.39GB

2021年10月12日 13:08:02     电影发布:来源于网络     电影分类:欧美电影     评论(0)    

飞越迷城[中文字幕].Ishtar.1987.1080p.BluRay.x265.10bit.DTS 8.39GB 歌舞 冒险片 喜剧片 欧美电影  第1张

◎译 名 飞越迷城 / 伊斯达

◎片 名 Ishtar

◎年 代 1987

◎产 地 美国

◎类 别 喜剧 / 歌舞 / 冒险

◎语 言 英语

◎IMDb链接 https://www.imdb.com/title/tt0093278/

◎豆瓣评分 5.7/10 (161人评价)

◎豆瓣链接 https://movie.douban.com/subject/1301423/

◎片 长 107 分钟

◎导 演 伊莲·梅 Elaine May (id:1045170)

◎编 剧 伊莲·梅 Elaine May (id:1045170)

◎演 员 沃伦·比蒂 Warren Beatty (id:1002722)

达斯汀·霍夫曼 Dustin Hoffman (id:1054427)

伊莎贝尔·阿佳妮 Isabelle Adjani (id:1022001)

泰丝·哈珀 Tess Harper (id:1025290)

阿莱克斯·海德-怀特 Alex Hyde-White (id:1007079)

比尔·穆尔 Bill Moor (id:1133841)

杰克韦斯顿 Jack Weston (id:1164084)

托尼·赫德 Tony Head (id:1208333)

Rose Arrick Rose Arrick (id:1061064)

纳迪姆·萨瓦哈 Nadim Sawalha (id:1296774)

克瑞丝汀·罗丝 Cristine Rose (id:1007069)

大卫·马古利斯 David Margulies (id:1125418)

阿隆·伊帕莱 Aharon Ipalé (id:1108228)

朱莉·加菲尔德 Julie Garfield (id:1100064)

弗雷德·迈拉麦德 Fred Melamed (id:1045154)

卡罗尔·凯恩 Carol Kane (id:1019072)

查尔斯·格罗丁 Charles Grodin (id:1048196)

沃伦·克拉克 Warren Clarke (id:1048241)

赫布·加德纳 Herb Gardner (id:1014803)

哈鲁克·比尔根纳尔 Haluk Bilginer (id:1065352)

马特·弗里沃 Matt Frewer (id:1013864)

亚瑟·布豪斯 Arthur Brauss (id:1074033)

布鲁斯-戈登 Bruce Gordon (id:1097366)

沃伦·比蒂 Warren Beatty (id:1002722)

戴夫·格鲁辛 Dave Grusin (id:1012601)

维托里奥·斯托拉罗 Vittorio Storaro (id:1009683)

史蒂芬·A·罗特尔 Stephen A. Rotter (id:1312536)

Richard P. Cirincione Richard P. Cirincione (id:1280819)

威廉·雷诺兹 William Reynolds (id:1138322)

Noel Davis Noel Davis (id:1088639)

保罗·席尔勃 Paul Sylbert (id:1001507)

吉姆·埃里克森 Jim Erickson (id:1303143)

安东尼·鲍威尔 Anthony Powell (id:1131122)

Robert Jiras Robert Jiras (id:1026086)

Alan Boyle Alan Boyle (id:1279122)

Barry Richardson Barry Richardson (id:1312522)

迈克尔·D·穆尔 Michael D. Moore (id:1028085)

李·克利里 Lee Cleary (id:1014594)

Ahmed Boulane Ahmed Boulane (id:1066178)

George Muhs George Muhs (id:1127284)

◎标 签 美国 / 阿佳妮 / IsabelleAdjani / 喜剧 / 1980s / 1987 / 美国电影 / 达斯汀.霍夫曼

◎简 介

一对时运不济的歌手兼作曲家查克和李,为了求最后一线生机,接了非洲内陆某城市的登台合约,途中,在中东伊斯达的机场,查克伸出援手帮助一位美丽的革命份子席拉,不料就此卷入一场满惊险和离奇的冒险。

沃伦·比蒂,达斯汀·霍夫曼,伊莎贝尔·阿佳妮,贝鲁托奇御用摄影维托里奥·斯托拉罗,伊莲·梅……1987年的这部强强联手四千万巨制的《伊斯达》到底有多「扑街」?扑街到让可口可乐退圈电影业,把哥伦比亚电影公司转手卖给索尼。几十年来它的好多大title振聋发聩不绝于耳,包括史上最强票房毒药,史上最烂电影,来自地狱的电影啦等等。30年后,《伊斯达》才重新获得关注,对其评价亦出现一番逆转。

  1. ##### MediaInfo ######

  2. General

  3. Unique ID : 24750304442414608553862558756164486387 (0x129EBC39122E701F6C36C50EA41A44F3)

  4. Complete name : [email protected]

  5. Format : Matroska

  6. Format version : Version 4

  7. File size : 8.39 GiB

  8. Duration : 1 h 44 min

  9. Overall bit rate : 11.4 Mb/s

  10. Movie name : Ishtar (Director's Cut) - Blu-ray?

  11. Encoded date : UTC 2021-10-10 16:15:47

  12. Writing application : mkvmerge v61.0.0 ('So') 64-bit

  13. Writing library : libebml v1.4.2 + libmatroska v1.6.4

  14. Cover : Yes

  15. Attachments : cover.jpg


  16. Video

  17. ID : 1

  18. Format : HEVC

  19. Format/Info : High Efficiency Video Coding

  20. Format profile : Main [email protected]@Main

  21. Codec ID : V_MPEGH/ISO/HEVC

  22. Duration : 1 h 44 min

  23. Bit rate : 9 830 kb/s

  24. Width : 1 920 pixels

  25. Height : 1 040 pixels

  26. Display aspect ratio : 1.85:1

  27. Frame rate mode : Constant

  28. Frame rate : 23.976 (24000/1001/53354) FPS

  29. Color space : YUV

  30. Chroma subsampling : 4:2:0

  31. Bit depth : 10 bits

  32. Bits/(Pixel*Frame) : 0.205

  33. Stream size : 7.21 GiB (86%)

  34. Writing library : x265 3.5+2-g2b25c9ba0+45:[Windows][GCC 10.2.0][64 bit] Yuuki 10bit+8bit+12bit

  35. Encoding settings : rc=crf / crf=18.5000 / qcomp=0.60 / qpstep=4 / stats-write=0 / stats-read=0 / no-lossless / no-cu-lossless / aq-mode=3 / aq-strength=0.70 / cbqpoffs=0 / crqpoffs=0 / ipratio=1.40 / pbratio=1.30 / psy-rd=2.00 / psy-rdoq=0.00 / deblock=0:0 / ref=6 / limit-refs=1 / no-limit-modes / bframes=8 / b-adapt=2 / bframe-bias=0 / b-pyramid / b-intra / weightp / weightb / min-keyint=24 / max-keyint=240 / rc-lookahead=24 / gop-lookahead=0 / NTMzNTQ=uuDQuD2mJt9fsCf / scenecut=40 / hist-scenecut=0 / radl=0 / max-cu-size=64 / min-cu-size=8 / me=3 / subme=7 / merange=48 / rdoq-level=0 / rd=4 / rdpenalty=0 / dynamic-rd=0.00 / no-rd-refine / ----- / cutree / sao / no-rect / no-amp / no-open-gop / wpp / no-pmode / pme / no-psnr / no-ssim / nr-intra=0 / nr-inter=0 / no-constrained-intra / no-strong-intra-smoothing / max-tu-size=32 / tu-inter-depth=1 / tu-intra-depth=1 / limit-tu=0 / qg-size=32 / qpmax=69 / qpmin=0 / ----- / cpuid=533541111039 / frame-threads=4 / numa-pools=+ / log-level=2 / input-csp=1 / input-res=1920x1040 / interlace=0 / level-idc=0 / high-tier=1 / uhd-bd=0 / no-allow-non-conformance / no-repeat-headers / aud / no-hrd / info / hash=0 / no-temporal-layers / lookahead-slices=0 / no-splice / no-intra-refresh / no-ssim-rd / signhide / no-tskip / max-merge=3 / temporal-mvp / no-frame-dup / no-hme / no-analyze-src-pics / no-sao-non-deblock / selective-sao=4 / early-skip / rskip / no-fast-intra / no-tskip-fast / no-splitrd-skip / zone-count=0 / no-strict-cbr / no-rc-grain / no-const-vbv / sar=0 / overscan=0 / videoformat=5 / range=0 / colorprim=2 / transfer=2 / colormatrix=2 / chromaloc=0 / display-window=0 / cll=0,0 / min-luma=0 / max-luma=1023 / log2-max-poc-lsb=8 / vui-timing-info / vui-hrd-info / slices=1 / no-opt-qp-pps / no-opt-ref-list-length-pps / no-multi-pass-opt-rps / scenecut-bias=0.05 / hist-threshold=0.03 / no-opt-cu-delta-qp / no-aq-motion / no-hdr10 / no-hdr10-opt / no-dhdr10-opt / no-idr-recovery-sei / analysis-reuse-level=0 / analysis-save-reuse-level=0 / analysis-load-reuse-level=0 / scale-factor=0 / refine-intra=0 / refine-inter=0 / refine-mv=1 / refine-ctu-distortion=0 / no-limit-sao / ctu-info=0 / no-lowpass-dct / refine-analysis-type=0 / copy-pic=1 / max-ausize-factor=1.0 / no-dynamic-refine / no-single-sei / no-hevc-aq / no-svt / no-field / qp-adaptation-range=1.00 / scenecut-aware-qp=0conformance-window-offsets / right=0 / bottom=0 / NTMzNTQ= / decoder-max-rate=0 / no-vbv-live-multi-pass

  36. Default : Yes

  37. Forced : No


  38. Audio

  39. ID : 2

  40. ID in the original source medium : 4352 (0x1100)

  41. Format : DTS

  42. Format/Info : Digital Theater Systems

  43. Codec ID : A_DTS

  44. Duration : 1 h 44 min

  45. Bit rate mode : Constant

  46. Bit rate : 1 509 kb/s

  47. Channel(s) : 6 channels

  48. Channel layout : C L R Ls Rs LFE

  49. Sampling rate : 48.0 kHz

  50. Frame rate : 93.750 FPS (512 SPF)

  51. Bit depth : 24 bits

  52. Compression mode : Lossy

  53. Stream size : 1.11 GiB (13%)

  54. Language : English

  55. Default : Yes

  56. Forced : No

  57. Original source medium : Blu-ray


  58. Text #1

  59. ID : 3

  60. ID in the original source medium : 4610 (0x1202)

  61. Format : PGS

  62. Muxing mode : zlib

  63. Codec ID : S_HDMV/PGS

  64. Codec ID/Info : Picture based subtitle format used on BDs/HD-DVDs

  65. Duration : 1 h 41 min

  66. Bit rate : 61.8 kb/s

  67. Count of elements : 3477

  68. Stream size : 44.7 MiB (1%)

  69. Title : chs&eng

  70. Language : Chinese

  71. Default : Yes

  72. Forced : No

  73. Original source medium : Blu-ray


  74. Text #2

  75. ID : 4

  76. ID in the original source medium : 4611 (0x1203)

  77. Format : PGS

  78. Muxing mode : zlib

  79. Codec ID : S_HDMV/PGS

  80. Codec ID/Info : Picture based subtitle format used on BDs/HD-DVDs

  81. Duration : 1 h 41 min

  82. Bit rate : 62.2 kb/s

  83. Count of elements : 3477

  84. Stream size : 45.0 MiB (1%)

  85. Title : cht&eng

  86. Language : Chinese

  87. Default : No

  88. Forced : No

  89. Original source medium : Blu-ray


  90. Text #3

  91. ID : 5

  92. ID in the original source medium : 4612 (0x1204)

  93. Format : PGS

  94. Muxing mode : zlib

  95. Codec ID : S_HDMV/PGS

  96. Codec ID/Info : Picture based subtitle format used on BDs/HD-DVDs

  97. Duration : 1 h 41 min

  98. Bit rate : 35.2 kb/s

  99. Count of elements : 3477

  100. Stream size : 25.4 MiB (0%)

  101. Title : chs

  102. Language : Chinese

  103. Default : No

  104. Forced : No

  105. Original source medium : Blu-ray


  106. Text #4

  107. ID : 6

  108. ID in the original source medium : 4613 (0x1205)

  109. Format : PGS

  110. Muxing mode : zlib

  111. Codec ID : S_HDMV/PGS

  112. Codec ID/Info : Picture based subtitle format used on BDs/HD-DVDs

  113. Duration : 1 h 41 min

  114. Bit rate : 35.6 kb/s

  115. Count of elements : 3477

  116. Stream size : 25.7 MiB (0%)

  117. Title : cht

  118. Language : Chinese

  119. Default : No

  120. Forced : No

  121. Original source medium : Blu-ray


  122. Text #5

  123. ID : 7

  124. ID in the original source medium : 4609 (0x1201)

  125. Format : PGS

  126. Muxing mode : zlib

  127. Codec ID : S_HDMV/PGS

  128. Codec ID/Info : Picture based subtitle format used on BDs/HD-DVDs

  129. Duration : 1 h 41 min

  130. Bit rate : 50.7 kb/s

  131. Count of elements : 3101

  132. Stream size : 36.6 MiB (0%)

  133. Title : eng

  134. Language : English

  135. Default : No

  136. Forced : No

  137. Original source medium : Blu-ray


  138. Menu

  139. 00:00:00.000 : Chapter 01

  140. 00:06:57.750 : Chapter 02

  141. 00:13:46.867 : Chapter 03

  142. 00:21:58.734 : Chapter 04

  143. 00:28:12.857 : Chapter 05

  144. 00:32:39.624 : Chapter 06

  145. 00:41:20.644 : Chapter 07

  146. 00:46:22.571 : Chapter 08

  147. 00:52:10.961 : Chapter 09

  148. 00:59:56.342 : Chapter 10

  149. 01:06:09.966 : Chapter 11

  150. 01:12:11.285 : Chapter 12

  151. 01:16:54.985 : Chapter 13

  152. 01:22:47.128 : Chapter 14

  153. 01:29:52.387 : Chapter 15

  154. 01:35:26.470 : Chapter 16


文件下载


除非特别注明,本文『飞越迷城[中文字幕].Ishtar.1987.1080p.BluRay.x265.10bit.DTS 8.39GB』来源于互联网机器人自动抓取,非本站原创。 浮游电影网不对本文拥有版权,如有侵犯,请联系邮箱:fuyouu#yandex.com[#换成@]投诉。我们会在15个工作日内删除。 但烦请转载时请标明出处:“本文转载于『浮游电影网』,原文地址:https://www.fuyouu.com/14891.html

评论吧骚年!

发表你的见解   

昵称*

E-mail*(建议输入,以便收到博主回复的提示邮件)

验证码*

您可以使用eMule或eMule Mod(Windows)、aMule(Win、Linux、Mac)等软件下载eD2k链接。。
eMule收藏集(.emulecollection)文件是您选中的所有链接的列表文件。eMule可以直接下载它们。
按住SHIFT键选择可以选中多个选择框。
可用文件名和大小选择器来选择文件。
文件名选择器帮您根据文件名称或后缀来选择文件。不分大小写。
符号使用:
和:空格( )、+
不包含:-
或:|
转义:一对英文引号("");
匹配开头:^
匹配结尾:$
例如:
选中所有名称中包含有“eMule”或“0.49c”字眼,但不包含有“exe”字眼的:emule|0.49c -exe
选中所有名称的开头是“eMule”,结尾是“0.49c”的:^emule 0.49c$
选中所有名称中带有“eMule 0.49c”的(必须是“eMule 0.49c”,中间没有别的字符,不能是“eMule fake 0.49c”),需要转义:"emule 0.49c"
大小选择器帮您根据文件大小选择文件。