当前位置: 首页 >> 欧美电影 >> 我杀死了巨人[中文字幕].I.Kill.Giants.2017.1080p.BluRay.x265.10bit.DTS 4.30GB >> 正文

我杀死了巨人[中文字幕].I.Kill.Giants.2017.1080p.BluRay.x265.10bit.DTS 4.30GB

2021年10月12日 13:06:14     电影发布:来源于网络     电影分类:欧美电影     评论(0)    

我杀死了巨人[中文字幕].I.Kill.Giants.2017.1080p.BluRay.x265.10bit.DTS 4.30GB 奇幻片 惊悚片 剧情片 欧美电影  第1张

◎译 名 我杀死了巨人 / 杀死巨人的女孩(台) / 巨人女杀手

◎片 名 I Kill Giants

◎年 代 2017

◎产 地 美国 / 英国 / 比利时

◎类 别 剧情 / 惊悚 / 奇幻

◎语 言 英语

◎上映日期 2017-09-09(多伦多电影节) / 2018-03-23(美国) / 2018-04-06(英国)

◎IMDb链接 https://www.imdb.com/title/tt4547194/

◎豆瓣评分 5.5/10 (3892人评价)

◎豆瓣链接 https://movie.douban.com/subject/26352592/

◎片 长 106分钟

◎导 演 安德斯·瓦尔特 Anders Walter (id:1238417)

◎编 剧 乔·凯利 Joe Kelly (id:1372997)

J·M·肯·尼姆拉 J.M. Ken Niimura (id:1391084)

◎演 员 麦迪逊·沃尔夫 Madison Wolfe (id:1338881)

佐伊·索尔达娜 Zoe Saldana (id:1047985)

伊莫琴·普茨 Imogen Poots (id:1274510)

悉德妮·韦德 Sydney Wade (id:1390690)

罗丽·杰克逊 Rory Jackson (id:1259343)

阿特·帕金森 Art Parkinson (id:1328167)

詹妮弗·艾莉 Jennifer Ehle (id:1012506)

唐·威彻利 Don Wycherley (id:1050512)

诺埃尔·克拉克 Noel Clarke (id:1036446)

本·卡罗兰 Ben Carolan (id:1361886)

布兰登·马赫 Brandon Maher (id:1391085)

克里斯·哥伦布 Chris Columbus (id:1049716)

洛朗·佩雷斯 Laurent Perez (id:1036108)

◎标 签 奇幻 / 心理 / 儿童 / 美国 / 剧情 / 2017 / 电影 / 惊悚

◎简 介

安德斯·瓦尔特执导的奇幻惊悚片[我杀巨人]曝光首款海报。该片由佐伊·索尔达娜、伊莫琴·普茨([房车])、麦迪逊·沃尔夫([招魂2])等主演。故事讲述述芭芭拉(麦迪逊·沃尔夫饰)选择逃离学校和家庭生活,因为这样可以回到神奇的巨人世界。该片今年9月亮相多伦多电影节,北美预计今年上映。

  1. ##### MediaInfo ######

  2. General

  3. Unique ID : 133531907520849106193148125749742412851 (0x64754F5715A634EE15F472BDF9202433)

  4. Complete name : [email protected]mkv

  5. Format : Matroska

  6. Format version : Version 4

  7. File size : 4.30 GiB

  8. Duration : 1 h 46 min

  9. Overall bit rate : 5 786 kb/s

  10. Movie name : I Kill Giants

  11. Encoded date : UTC 2021-10-10 15:44:51

  12. Writing application : mkvmerge v61.0.0 ('So') 64-bit

  13. Writing library : libebml v1.4.2 + libmatroska v1.6.4

  14. Cover : Yes

  15. Attachments : cover.jpg


  16. Video

  17. ID : 1

  18. Format : HEVC

  19. Format/Info : High Efficiency Video Coding

  20. Format profile : Main [email protected]@Main

  21. Codec ID : V_MPEGH/ISO/HEVC

  22. Duration : 1 h 46 min

  23. Bit rate : 4 227 kb/s

  24. Width : 1 920 pixels

  25. Height : 804 pixels

  26. Display aspect ratio : 2.40:1

  27. Frame rate mode : Constant

  28. Frame rate : 23.976 (24000/1001/53354) FPS

  29. Color space : YUV

  30. Chroma subsampling : 4:2:0

  31. Bit depth : 10 bits

  32. Bits/(Pixel*Frame) : 0.114

  33. Stream size : 3.14 GiB (73%)

  34. Writing library : x265 3.5+2-g2b25c9ba0+45:[Windows][GCC 10.2.0][64 bit] Yuuki 10bit+8bit+12bit

  35. Encoding settings : rc=crf / crf=15.5000 / qcomp=0.60 / qpstep=4 / stats-write=0 / stats-read=0 / no-lossless / no-cu-lossless / aq-mode=3 / aq-strength=0.90 / cbqpoffs=0 / crqpoffs=0 / ipratio=1.40 / pbratio=1.30 / psy-rd=2.00 / psy-rdoq=0.00 / deblock=0:0 / ref=6 / limit-refs=1 / no-limit-modes / bframes=8 / b-adapt=2 / bframe-bias=0 / b-pyramid / b-intra / weightp / weightb / min-keyint=24 / max-keyint=240 / rc-lookahead=24 / gop-lookahead=0 / NTMzNTQ=uuDQuD2mJt9fsCf / scenecut=40 / hist-scenecut=0 / radl=0 / max-cu-size=64 / min-cu-size=8 / me=3 / subme=7 / merange=48 / rdoq-level=0 / rd=4 / rdpenalty=0 / dynamic-rd=0.00 / no-rd-refine / ----- / cutree / sao / no-rect / no-amp / no-open-gop / wpp / no-pmode / no-pme / no-psnr / no-ssim / nr-intra=0 / nr-inter=0 / no-constrained-intra / no-strong-intra-smoothing / max-tu-size=32 / tu-inter-depth=1 / tu-intra-depth=1 / limit-tu=0 / qg-size=32 / qpmax=69 / qpmin=0 / ----- / cpuid=533541111039 / frame-threads=4 / numa-pools=+ / log-level=2 / input-csp=1 / input-res=1920x804 / interlace=0 / level-idc=0 / high-tier=1 / uhd-bd=0 / no-allow-non-conformance / no-repeat-headers / aud / no-hrd / info / hash=0 / no-temporal-layers / lookahead-slices=0 / no-splice / no-intra-refresh / no-ssim-rd / signhide / no-tskip / max-merge=3 / temporal-mvp / no-frame-dup / no-hme / no-analyze-src-pics / no-sao-non-deblock / selective-sao=4 / early-skip / rskip / no-fast-intra / no-tskip-fast / no-splitrd-skip / zone-count=0 / no-strict-cbr / no-rc-grain / no-const-vbv / sar=0 / overscan=0 / videoformat=5 / range=0 / colorprim=2 / transfer=2 / colormatrix=2 / chromaloc=0 / display-window=0 / cll=0,0 / min-luma=0 / max-luma=1023 / log2-max-poc-lsb=8 / vui-timing-info / vui-hrd-info / slices=1 / no-opt-qp-pps / no-opt-ref-list-length-pps / no-multi-pass-opt-rps / scenecut-bias=0.05 / hist-threshold=0.03 / no-opt-cu-delta-qp / no-aq-motion / no-hdr10 / no-hdr10-opt / no-dhdr10-opt / no-idr-recovery-sei / analysis-reuse-level=0 / analysis-save-reuse-level=0 / analysis-load-reuse-level=0 / scale-factor=0 / refine-intra=0 / refine-inter=0 / refine-mv=1 / refine-ctu-distortion=0 / no-limit-sao / ctu-info=0 / no-lowpass-dct / refine-analysis-type=0 / copy-pic=1 / max-ausize-factor=1.0 / no-dynamic-refine / no-single-sei / no-hevc-aq / no-svt / no-field / qp-adaptation-range=1.00 / scenecut-aware-qp=0conformance-window-offsets / right=0 / bottom=0 / NTMzNTQ= / decoder-max-rate=0 / no-vbv-live-multi-pass

  36. Default : Yes

  37. Forced : No


  38. Audio

  39. ID : 2

  40. ID in the original source medium : 4352 (0x1100)

  41. Format : DTS

  42. Format/Info : Digital Theater Systems

  43. Codec ID : A_DTS

  44. Duration : 1 h 46 min

  45. Bit rate mode : Constant

  46. Bit rate : 1 509 kb/s

  47. Channel(s) : 6 channels

  48. Channel layout : C L R Ls Rs LFE

  49. Sampling rate : 48.0 kHz

  50. Frame rate : 93.750 FPS (512 SPF)

  51. Bit depth : 24 bits

  52. Compression mode : Lossy

  53. Stream size : 1.12 GiB (26%)

  54. Language : English

  55. Default : Yes

  56. Forced : No

  57. Original source medium : Blu-ray


  58. Text #1

  59. ID : 3

  60. ID in the original source medium : 4610 (0x1202)

  61. Format : PGS

  62. Muxing mode : zlib

  63. Codec ID : S_HDMV/PGS

  64. Codec ID/Info : Picture based subtitle format used on BDs/HD-DVDs

  65. Duration : 1 h 32 min

  66. Bit rate : 32.0 kb/s

  67. Count of elements : 1296

  68. Stream size : 21.1 MiB (0%)

  69. Title : chs&eng

  70. Language : Chinese

  71. Default : Yes

  72. Forced : No

  73. Original source medium : Blu-ray


  74. Text #2

  75. ID : 4

  76. ID in the original source medium : 4611 (0x1203)

  77. Format : PGS

  78. Muxing mode : zlib

  79. Codec ID : S_HDMV/PGS

  80. Codec ID/Info : Picture based subtitle format used on BDs/HD-DVDs

  81. Duration : 1 h 32 min

  82. Bit rate : 32.2 kb/s

  83. Count of elements : 1296

  84. Stream size : 21.2 MiB (0%)

  85. Title : cht&eng

  86. Language : Chinese

  87. Default : No

  88. Forced : No

  89. Original source medium : Blu-ray


  90. Text #3

  91. ID : 5

  92. ID in the original source medium : 4612 (0x1204)

  93. Format : PGS

  94. Muxing mode : zlib

  95. Codec ID : S_HDMV/PGS

  96. Codec ID/Info : Picture based subtitle format used on BDs/HD-DVDs

  97. Duration : 1 h 32 min

  98. Bit rate : 18.7 kb/s

  99. Count of elements : 1295

  100. Stream size : 12.4 MiB (0%)

  101. Title : chs

  102. Language : Chinese

  103. Default : No

  104. Forced : No

  105. Original source medium : Blu-ray


  106. Text #4

  107. ID : 6

  108. ID in the original source medium : 4613 (0x1205)

  109. Format : PGS

  110. Muxing mode : zlib

  111. Codec ID : S_HDMV/PGS

  112. Codec ID/Info : Picture based subtitle format used on BDs/HD-DVDs

  113. Duration : 1 h 32 min

  114. Bit rate : 18.9 kb/s

  115. Count of elements : 1295

  116. Stream size : 12.5 MiB (0%)

  117. Title : cht

  118. Language : Chinese

  119. Default : No

  120. Forced : No

  121. Original source medium : Blu-ray


  122. Text #5

  123. ID : 7

  124. ID in the original source medium : 4608 (0x1200)

  125. Format : PGS

  126. Muxing mode : zlib

  127. Codec ID : S_HDMV/PGS

  128. Codec ID/Info : Picture based subtitle format used on BDs/HD-DVDs

  129. Duration : 1 h 45 min

  130. Bit rate : 16.1 kb/s

  131. Count of elements : 2038

  132. Stream size : 12.1 MiB (0%)

  133. Title : eng

  134. Language : English

  135. Default : No

  136. Forced : No

  137. Original source medium : Blu-ray


  138. Menu

  139. 00:00:00.000 : 第 01 章

  140. 00:08:40.353 : 第 02 章

  141. 00:16:09.802 : 第 03 章

  142. 00:20:35.609 : 第 04 章

  143. 00:32:25.318 : 第 05 章

  144. 00:51:53.819 : 第 06 章

  145. 01:04:16.143 : 第 07 章

  146. 01:16:04.977 : 第 08 章

  147. 01:23:37.012 : 第 09 章

  148. 01:37:49.905 : 第 10 章


文件下载


除非特别注明,本文『我杀死了巨人[中文字幕].I.Kill.Giants.2017.1080p.BluRay.x265.10bit.DTS 4.30GB』来源于互联网机器人自动抓取,非本站原创。 浮游电影网不对本文拥有版权,如有侵犯,请联系邮箱:fuyouu#yandex.com[#换成@]投诉。我们会在15个工作日内删除。 但烦请转载时请标明出处:“本文转载于『浮游电影网』,原文地址:https://www.fuyouu.com/14890.html

评论吧骚年!

发表你的见解   

昵称*

E-mail*(建议输入,以便收到博主回复的提示邮件)

验证码*

您可以使用eMule或eMule Mod(Windows)、aMule(Win、Linux、Mac)等软件下载eD2k链接。。
eMule收藏集(.emulecollection)文件是您选中的所有链接的列表文件。eMule可以直接下载它们。
按住SHIFT键选择可以选中多个选择框。
可用文件名和大小选择器来选择文件。
文件名选择器帮您根据文件名称或后缀来选择文件。不分大小写。
符号使用:
和:空格( )、+
不包含:-
或:|
转义:一对英文引号("");
匹配开头:^
匹配结尾:$
例如:
选中所有名称中包含有“eMule”或“0.49c”字眼,但不包含有“exe”字眼的:emule|0.49c -exe
选中所有名称的开头是“eMule”,结尾是“0.49c”的:^emule 0.49c$
选中所有名称中带有“eMule 0.49c”的(必须是“eMule 0.49c”,中间没有别的字符,不能是“eMule fake 0.49c”),需要转义:"emule 0.49c"
大小选择器帮您根据文件大小选择文件。