当前位置: 首页 >> 国产电影 >> 白蛇传·情[粤语音轨/中文字幕].White.Snake.2019.2160p.WEB-DL.H265.AAC 5.87GB >> 正文

白蛇传·情[粤语音轨/中文字幕].White.Snake.2019.2160p.WEB-DL.H265.AAC 5.87GB

2021年10月11日 13:07:20     电影发布:来源于网络     电影分类:国产电影     评论(0)    

白蛇传·情[粤语音轨/中文字幕].White.Snake.2019.2160p.WEB DL.H265.AAC 5.87GB 戏曲 爱情片 剧情片 国产电影  第1张

◎译 名 白蛇传·情 / White Snake

◎年 代 2019

◎产 地 中国大陆

◎类 别 剧情 / 爱情 / 戏曲

◎语 言 粤语

◎上映日期 2021-05-20(中国大陆) / 2019-10-18(平遥电影展)

◎IMDb链接 https://www.imdb.com/title/tt11151998/

◎豆瓣评分 8.1/10 (28364人评价)

◎豆瓣链接 https://movie.douban.com/subject/34825976/

◎片 长 101分钟

◎导 演 张险峰 Xianfeng Zhang (id:1366732)

◎编 剧 莫非 (id:1430957)

◎演 员 曾小敏 Xiaomin Zeng (id:1387516)

文汝清 (id:1430958)

朱红星 Hongxing Zhu (id:1430959)

王燕飞 Yanfei Wang (id:1387519)

王垂林 Chuilin Wang (id:1446629)

曾小敏 Xiaomin Zeng (id:1387516)

杨卫星 (id:1456345)

汪一洋 (id:1456347)

钱永红 Yonghong Qian (id:1456349)

杨树 (id:1456350)

黎鹤 (id:1456351)

李钊 (id:1456352)

陈捷 (id:1456353)

黄昌宁 (id:1456354)

包世宏 Shihong Bao (id:1345652)

严云涛 (id:1456355)

孙金华 (id:1456357)

吕丹 (id:1456361)

王勃 (id:1456362)

唐海伟 (id:1456363)

陈挥之 (id:1456371)

陈征风 Chen Fong Chin (id:1456367)

孙依群 (id:1456368)

李金辉 Jin-hui Li (id:1331943)

王晓霞 Xiaoxia Wang (id:1456372)

许丹华 Dan-Wah Hui (id:1402531)

刘佳笳 (id:1456358)

邱晴 (id:1456359)

梁柱 (id:1456360)

Glenn Wilson (id:1221368)

吴铁雄 (id:1456369)

李承济 Seung Jae Lee (id:1456370)

◎标 签 中国美学 / 戏曲电影 / 粤剧电影 / 粤剧 / 戏曲 / 中国 / 浪漫爱情系 / 传说

◎简 介

首部4K全景声粤剧电影,取材自民间故事《白蛇传》,那白蛇的故事,远久流传...

白素贞修炼千年,只为人间寻那许仙,再续兰因前缘。

说什么人妖殊途,法理难容此爱恋。昆仑雪寒金山水漫,白素贞拼尽所有,只求天地人心情真一片。

纵天谴又如何?再困塔里千年亦甘愿!

彼此守望,哪天,佛陀花开,你我再见!

◎获奖情况 (共3项)

第32届中国电影金鸡奖 (2019)

最佳戏曲片(提名)

第2届海南岛国际电影节 (2019)

金椰奖 最佳影片奖(提名)

金椰奖 最佳技术奖

  1. ##### MediaInfo ######

  2. General

  3. Complete name : 白蛇传·情[email protected]

  4. Format : MPEG-4

  5. Format profile : Base Media

  6. Codec ID : isom (isom/iso2/mp41)

  7. File size : 5.86 GiB

  8. Duration : 1 h 41 min

  9. Overall bit rate : 8 238 kb/s

  10. Movie name : 白蛇传·情

  11. Description : 首部4K全景声粤剧电影,取材自民间故事《白蛇传》,那白蛇的故事,远久流传...白素贞修炼千年,只为人间寻那许仙,再续兰因前缘。说什么人妖殊途,法理难容此爱恋。昆仑雪寒金山水漫,白素贞拼尽所有,只求天地人心情真一片。纵天谴又如何?再困塔里千年亦甘愿!彼此守望,哪天,佛陀花开,你我再见!

  12. Writing application : Lavf58.17.103

  13. Cover : Yes


  14. Video

  15. ID : 1

  16. Format : HEVC

  17. Format/Info : High Efficiency Video Coding

  18. Format profile : [email protected]@Main

  19. Codec ID : hev1

  20. Codec ID/Info : High Efficiency Video Coding

  21. Duration : 1 h 41 min

  22. Bit rate : 7 902 kb/s

  23. Width : 4 096 pixels

  24. Height : 1 716 pixels

  25. Display aspect ratio : 2.40:1

  26. Frame rate mode : Variable

  27. Frame rate : 24.000 FPS

  28. Minimum frame rate : 23.810 FPS

  29. Maximum frame rate : 24.390 FPS

  30. Color space : YUV

  31. Chroma subsampling : 4:2:0

  32. Bit depth : 8 bits

  33. Bits/(Pixel*Frame) : 0.047

  34. Stream size : 5.63 GiB (96%)

  35. Color range : Limited

  36. Color primaries : BT.709

  37. Transfer characteristics : BT.709

  38. Matrix coefficients : BT.709

  39. Codec configuration box : hvcC


  40. Audio

  41. ID : 2

  42. Format : AAC LC

  43. Format/Info : Advanced Audio Codec Low Complexity

  44. Codec ID : mp4a-40-2

  45. Duration : 1 h 41 min

  46. Bit rate mode : Constant

  47. Bit rate : 328 kb/s

  48. Channel(s) : 2 channels

  49. Channel layout : L R

  50. Sampling rate : 48.0 kHz

  51. Frame rate : 46.875 FPS (1024 SPF)

  52. Compression mode : Lossy

  53. Stream size : 239 MiB (4%)

  54. Default : Yes

  55. Alternate group : 1




复制代码



文件下载


除非特别注明,本文『白蛇传·情[粤语音轨/中文字幕].White.Snake.2019.2160p.WEB-DL.H265.AAC 5.87GB』来源于互联网机器人自动抓取,非本站原创。 浮游电影网不对本文拥有版权,如有侵犯,请联系邮箱:fuyouu#yandex.com[#换成@]投诉。我们会在15个工作日内删除。 但烦请转载时请标明出处:“本文转载于『浮游电影网』,原文地址:https://5.189.174.242/14886.html

评论吧骚年!

发表你的见解   

昵称*

E-mail*(建议输入,以便收到博主回复的提示邮件)

验证码*

您可以使用eMule或eMule Mod(Windows)、aMule(Win、Linux、Mac)等软件下载eD2k链接。。
eMule收藏集(.emulecollection)文件是您选中的所有链接的列表文件。eMule可以直接下载它们。
按住SHIFT键选择可以选中多个选择框。
可用文件名和大小选择器来选择文件。
文件名选择器帮您根据文件名称或后缀来选择文件。不分大小写。
符号使用:
和:空格( )、+
不包含:-
或:|
转义:一对英文引号("");
匹配开头:^
匹配结尾:$
例如:
选中所有名称中包含有“eMule”或“0.49c”字眼,但不包含有“exe”字眼的:emule|0.49c -exe
选中所有名称的开头是“eMule”,结尾是“0.49c”的:^emule 0.49c$
选中所有名称中带有“eMule 0.49c”的(必须是“eMule 0.49c”,中间没有别的字符,不能是“eMule fake 0.49c”),需要转义:"emule 0.49c"
大小选择器帮您根据文件大小选择文件。