当前位置: 首页 >> 欧美电影 >> 陌生人[中文字幕].The.Stranger.1946.1080p.FriDay.WEB-DL.H264.AAC 2.59GB >> 正文

陌生人[中文字幕].The.Stranger.1946.1080p.FriDay.WEB-DL.H264.AAC 2.59GB

2021年10月11日 13:04:23     电影发布:来源于网络     电影分类:欧美电影     评论(0)    

陌生人[中文字幕].The.Stranger.1946.1080p.FriDay.WEB DL.H264.AAC 2.59GB 黑色电影 悬疑片 犯罪片 惊悚片 剧情片 欧美电影  第1张

◎译 名 陌生人 / 陌生客 / 纳粹追凶

◎片 名 The Stranger

◎年 代 1946

◎产 地 美国

◎类 别 剧情 / 悬疑 / 惊悚 / 犯罪 / 黑色电影

◎语 言 英语 / 西班牙语 / 法语

◎上映日期 1946-05-25

◎IMDb链接 https://www.imdb.com/title/tt0038991/

◎豆瓣评分 6.9/10 (696人评价)

◎豆瓣链接 https://movie.douban.com/subject/1296497/

◎片 长 95 分钟

◎导 演 奥逊·威尔斯 Orson Welles (id:1048149)

◎编 剧 安东尼·维勒 Anthony Veiller (id:1010234)

维克托·特里瓦斯 Victor Trivas (id:1011178)

德克拉·邓宁 Decla Dunning (id:1040280)

奥逊·威尔斯 Orson Welles (id:1048149)

约翰·休斯顿 John Huston (id:1025239)

◎演 员 爱德华·罗宾逊 Edward G. Robinson (id:1036586)

洛丽泰·扬 Loretta Young (id:1014031)

奥逊·威尔斯 Orson Welles (id:1048149)

菲利普·梅里韦尔 Philip Merivale (id:1120664)

理查德·朗 Richard Long (id:1117941)

康斯坦丁肖恩 Konstantin Shayne (id:1142425)

比利·豪斯 Billy House (id:1100277)

玛莎·温特沃思 Martha Wentworth (id:1163962)

大卫·邦德 David Bond (id:1042001)

约翰·布朗 John Brown (id:1076154)

Neal Dodd Neal Dodd (id:1080321)

Nancy Evans Nancy Evans (id:1087665)

Adolph Faylauer Adolph Faylauer (id:1088168)

西奥多·戈特利布 Theodore Gottlieb (id:1152423)

约瑟夫·格兰比 Joseph Granby (id:1101696)

伊桑·莱德劳 Ethan Laidlaw (id:1107877)

鲁思李 Ruth Lee (id:1109038)

Lillian Molieri Lillian Molieri (id:1124784)

Isabel O'Madigan Isabel O'Madigan (id:1127823)

Gabriel Peralta Gabriel Peralta (id:1137365)

里贝尔·蓝道尔 Rebel Randall (id:1075482)

约翰尼·桑兹 Johnny Sands (id:1146328)

厄斯金·桑福德 Erskine Sanford (id:1146409)

Pietro Sosso Pietro Sosso (id:1157459)

Byron Keith Byron Keith (id:1107616)

萨姆·斯皮格尔 Sam Spiegel (id:1041774)

布罗尼斯洛·卡帕 Bronislau Kaper (id:1008098)

拉塞尔·麦蒂 Russell Metty (id:1050657)

Ernest J. Nims Ernest J. Nims (id:1044421)

阿尔伯特·S.达格斯蒂诺 Albert S. D'Agostino (id:1013829)

佩里·弗格森 Perry Ferguson (id:1042457)

Michael Woulfe Michael Woulfe (id:1021283)

Jack Voglin Jack Voglin (id:1162455)

◎标 签 美国 / 奥逊·威尔斯 / OrsonWelles / 黑色电影 / 1946 / 1940s / Orson_Welles / 美国电影

◎简 介

威爾斯啟發了黑色電影風格,又以這傤愋惋L格來處理本片。平靜小城受人尊敬的教授原來是納粹餘孽,聯邦密探微服偵查,引發出連場殺戮。威爾斯飾演教授,與康城影帝愛德華.羅便臣飾演的聯邦密探,大鬥演技,成為一時佳話。殺人毒計更為影片帶來奧斯卡最佳原著劇本和威尼斯影展最佳電影金獅獎提名,又是他最賣座的電影。

Welles, who had been an original inspiration of film noir, skillfully incorporated the noir element into this thriller of deceit and murder. Welles plays a well-respected small town professor who was actually a Nazi fugitive. The i...

◎获奖情况 (共2项)

第19届奥斯卡金像奖 (1947)

最佳原创故事(提名)

└──维克托·特里瓦斯 (id:1011178)

第8届威尼斯电影节 (1947)

国际奖 国际电影大奖(提名)

└──奥逊·威尔斯 (id:1048149)

  1. ##### MediaInfo ######

  2. General

  3. Unique ID : 173889165987339021072547632343288162515 (0x82D1D5CE38EE3264FEFCFD7D3B74A8D3)

  4. Complete name : [email protected]mkv

  5. Format : Matroska

  6. Format version : Version 4

  7. File size : 2.59 GiB

  8. Duration : 1 h 33 min

  9. Overall bit rate : 3 952 kb/s

  10. Encoded date : UTC 2021-10-09 12:39:45

  11. Writing application : mkvmerge v56.1.0 ('My Friend') 64-bit

  12. Writing library : libebml v1.4.2 + libmatroska v1.6.4


  13. Video

  14. ID : 1

  15. Format : AVC

  16. Format/Info : Advanced Video Codec

  17. Format profile : [email protected]

  18. Format settings : CABAC / 1 Ref Frames

  19. Format settings, CABAC : Yes

  20. Format settings, Reference frames : 1 frame

  21. Format settings, GOP : M=1, N=60

  22. Codec ID : V_MPEG4/ISO/AVC

  23. Duration : 1 h 33 min

  24. Bit rate mode : Constant

  25. Bit rate : 4 000 kb/s

  26. Width : 1 920 pixels

  27. Height : 1 080 pixels

  28. Display aspect ratio : 16:9

  29. Frame rate mode : Constant

  30. Frame rate : 29.970 (30000/1001/53354) FPS

  31. Color space : YUV

  32. Chroma subsampling : 4:2:0

  33. Bit depth : 8 bits

  34. Scan type : Progressive

  35. Bits/(Pixel*Frame) : 0.064

  36. Stream size : 2.51 GiB (97%)

  37. Language : English

  38. Default : Yes

  39. Forced : No


  40. Audio

  41. ID : 2

  42. Format : AAC LC

  43. Format/Info : Advanced Audio Codec Low Complexity

  44. Codec ID : A_AAC-2

  45. Duration : 1 h 33 min

  46. Bit rate : 125 kb/s

  47. Channel(s) : 2 channels

  48. Channel layout : L R

  49. Sampling rate : 48.0 kHz

  50. Frame rate : 46.875 FPS (1024 SPF)

  51. Compression mode : Lossy

  52. Stream size : 84.2 MiB (3%)

  53. Title : English

  54. Language : English

  55. Default : Yes

  56. Forced : No


  57. Text #1

  58. ID : 3

  59. Format : UTF-8

  60. Codec ID : S_TEXT/UTF8

  61. Codec ID/Info : UTF-8 Plain Text

  62. Duration : 1 h 33 min

  63. Bit rate : 54 b/s

  64. Count of elements : 1193

  65. Stream size : 37.3 KiB (0%)

  66. Title : Chinese Simplified

  67. Language : Chinese

  68. Default : Yes

  69. Forced : No


  70. Text #2

  71. ID : 4

  72. Format : UTF-8

  73. Codec ID : S_TEXT/UTF8

  74. Codec ID/Info : UTF-8 Plain Text

  75. Duration : 1 h 33 min

  76. Bit rate : 54 b/s

  77. Count of elements : 1193

  78. Stream size : 37.3 KiB (0%)

  79. Title : Chinese Traditional

  80. Language : Chinese

  81. Default : No

  82. Forced : No




复制代码



文件下载


除非特别注明,本文『陌生人[中文字幕].The.Stranger.1946.1080p.FriDay.WEB-DL.H264.AAC 2.59GB』来源于互联网机器人自动抓取,非本站原创。 浮游电影网不对本文拥有版权,如有侵犯,请联系邮箱:fuyouu#yandex.com[#换成@]投诉。我们会在15个工作日内删除。 但烦请转载时请标明出处:“本文转载于『浮游电影网』,原文地址:https://www.fuyouu.com/14884.html

评论吧骚年!

发表你的见解   

昵称*

E-mail*(建议输入,以便收到博主回复的提示邮件)

验证码*

您可以使用eMule或eMule Mod(Windows)、aMule(Win、Linux、Mac)等软件下载eD2k链接。。
eMule收藏集(.emulecollection)文件是您选中的所有链接的列表文件。eMule可以直接下载它们。
按住SHIFT键选择可以选中多个选择框。
可用文件名和大小选择器来选择文件。
文件名选择器帮您根据文件名称或后缀来选择文件。不分大小写。
符号使用:
和:空格( )、+
不包含:-
或:|
转义:一对英文引号("");
匹配开头:^
匹配结尾:$
例如:
选中所有名称中包含有“eMule”或“0.49c”字眼,但不包含有“exe”字眼的:emule|0.49c -exe
选中所有名称的开头是“eMule”,结尾是“0.49c”的:^emule 0.49c$
选中所有名称中带有“eMule 0.49c”的(必须是“eMule 0.49c”,中间没有别的字符,不能是“eMule fake 0.49c”),需要转义:"emule 0.49c"
大小选择器帮您根据文件大小选择文件。