当前位置: 首页 >> 国产电影 >> 别叫我酒神2[国语配音/中文字幕].Don't.Call.Me.Bacchus.2021.2160p.WEB-DL.H265.DDP2.0 1.84GB >> 正文

别叫我酒神2[国语配音/中文字幕].Don't.Call.Me.Bacchus.2021.2160p.WEB-DL.H265.DDP2.0 1.84GB

2021年10月11日 13:03:14     电影发布:来源于网络     电影分类:国产电影     评论(0)    

别叫我酒神2[国语配音/中文字幕].Dont.Call.Me.Bacchus.2021.2160p.WEB DL.H265.DDP2.0 1.84GB 喜剧片 国产电影  第1张

◎译 名 别叫我酒神2

◎年 代 2021

◎产 地 中国大陆

◎类 别 喜剧

◎语 言 汉语普通话

◎上映日期 2021-10-09(中国大陆网络)

◎IMDb链接 https://www.imdb.com/title//

◎豆瓣链接 https://movie.douban.com/subject/35614221/

◎片 长 94分钟

◎导 演 王岩川 Yan Chuan Wang (id:1395123)

◎演 员 宋晓峰 Xiaofeng Song (id:1355097)

崔菁格 Jingge Cui (id:1365813)

黄继栋 Jidong Huang (id:1399570)

张蓝艺 Lanyi Zhang (id:1350389)

罗辑 Ji Luo (id:1417084)

◎标 签 中国电影 / 喜剧 / 2021 / 国产 / 中国 / 电影 / 大陆 / 百度网盘

◎简 介

该片讲述了昔日一战成名的东北酒神老九(宋晓峰饰),为了帮助妹妹小九(崔菁格饰)不得不重出江湖,与房地产开发商田旭(黄继栋饰)及其手下们展开了一段围绕“酒”的斗智斗勇之旅的故事。

  1. ##### MediaInfo ######

  2. General

  3. Unique ID : 36335563562885662827643362122341342490 (0x1B55F99905DF3C3C5DD6F43022E4DD1A)

  4. Complete name : 别叫我酒神2.Don'[email protected].mkv

  5. Format : Matroska

  6. Format version : Version 4

  7. File size : 1.84 GiB

  8. Duration : 1 h 34 min

  9. Overall bit rate : 2 797 kb/s

  10. Encoded date : UTC 2021-10-10 07:25:32

  11. Writing application : mkvmerge v61.0.0 ('So') 64-bit

  12. Writing library : libebml v1.4.2 + libmatroska v1.6.4


  13. Video

  14. ID : 1

  15. Format : HEVC

  16. Format/Info : High Efficiency Video Coding

  17. Format profile : [email protected]@Main

  18. Codec ID : V_MPEGH/ISO/HEVC

  19. Duration : 1 h 34 min

  20. Bit rate : 2 413 kb/s

  21. Width : 3 840 pixels

  22. Height : 1 660 pixels

  23. Display aspect ratio : 2.35:1

  24. Frame rate mode : Constant

  25. Frame rate : 24.000 FPS

  26. Color space : YUV

  27. Chroma subsampling : 4:2:0

  28. Bit depth : 8 bits

  29. Bits/(Pixel*Frame) : 0.016

  30. Stream size : 1.59 GiB (86%)

  31. Default : Yes

  32. Forced : No

  33. Color range : Limited

  34. Color primaries : BT.709

  35. Transfer characteristics : BT.709

  36. Matrix coefficients : BT.709


  37. Audio #1

  38. ID : 2

  39. Format : E-AC-3

  40. Format/Info : Enhanced AC-3

  41. Commercial name : Dolby Digital Plus

  42. Codec ID : A_EAC3

  43. Duration : 1 h 34 min

  44. Bit rate mode : Constant

  45. Bit rate : 256 kb/s

  46. Channel(s) : 2 channels

  47. Channel layout : L R

  48. Sampling rate : 48.0 kHz

  49. Frame rate : 31.250 FPS (1536 SPF)

  50. Compression mode : Lossy

  51. Delay relative to video : -42 ms

  52. Stream size : 173 MiB (9%)

  53. Language : Chinese

  54. Service kind : Complete Main

  55. Default : Yes

  56. Forced : No


  57. Audio #2

  58. ID : 3

  59. Format : AAC LC

  60. Format/Info : Advanced Audio Codec Low Complexity

  61. Codec ID : A_AAC-2

  62. Duration : 1 h 34 min

  63. Bit rate : 125 kb/s

  64. Channel(s) : 2 channels

  65. Channel layout : L R

  66. Sampling rate : 48.0 kHz

  67. Frame rate : 46.875 FPS (1024 SPF)

  68. Compression mode : Lossy

  69. Delay relative to video : -42 ms

  70. Stream size : 84.6 MiB (4%)

  71. Language : Chinese

  72. Default : Yes

  73. Forced : No




复制代码




文件下载


除非特别注明,本文『别叫我酒神2[国语配音/中文字幕].Don't.Call.Me.Bacchus.2021.2160p.WEB-DL.H265.DDP2.0 1.84GB』来源于互联网机器人自动抓取,非本站原创。 浮游电影网不对本文拥有版权,如有侵犯,请联系邮箱:fuyouu#yandex.com[#换成@]投诉。我们会在15个工作日内删除。 但烦请转载时请标明出处:“本文转载于『浮游电影网』,原文地址:https://www.fuyouu.com/14883.html

评论吧骚年!

发表你的见解   

昵称*

E-mail*(建议输入,以便收到博主回复的提示邮件)

验证码*

您可以使用eMule或eMule Mod(Windows)、aMule(Win、Linux、Mac)等软件下载eD2k链接。。
eMule收藏集(.emulecollection)文件是您选中的所有链接的列表文件。eMule可以直接下载它们。
按住SHIFT键选择可以选中多个选择框。
可用文件名和大小选择器来选择文件。
文件名选择器帮您根据文件名称或后缀来选择文件。不分大小写。
符号使用:
和:空格( )、+
不包含:-
或:|
转义:一对英文引号("");
匹配开头:^
匹配结尾:$
例如:
选中所有名称中包含有“eMule”或“0.49c”字眼,但不包含有“exe”字眼的:emule|0.49c -exe
选中所有名称的开头是“eMule”,结尾是“0.49c”的:^emule 0.49c$
选中所有名称中带有“eMule 0.49c”的(必须是“eMule 0.49c”,中间没有别的字符,不能是“eMule fake 0.49c”),需要转义:"emule 0.49c"
大小选择器帮您根据文件大小选择文件。