当前位置: 首页 >> 欧美电影 >> 情枭的黎明[中文字幕].Carlitos.Way.1993.2160p.HDR.UHD.BluRay.DTS.x265-10bit 24.36GB >> 正文

情枭的黎明[中文字幕].Carlitos.Way.1993.2160p.HDR.UHD.BluRay.DTS.x265-10bit 24.36GB

2021年10月11日 12:59:33     电影发布:来源于网络     电影分类:欧美电影     评论(0)    

情枭的黎明[中文字幕].Carlitos.Way.1993.2160p.HDR.UHD.BluRay.DTS.x265 10bit 24.36GB 犯罪片 惊悚片 剧情片 欧美电影  第1张

◎译 名 情枭的黎明 / 角头风云(台) / 卡利托的方式 / 卡利托之路

◎片 名 Carlito's Way

◎年 代 1993

◎产 地 美国

◎类 别 剧情 / 惊悚 / 犯罪

◎语 言 英语 / 西班牙语

◎上映日期 1993-11-10

◎IMDb链接 https://www.imdb.com/title/tt0106519/

◎豆瓣评分 8.7/10 (34891人评价)

◎豆瓣链接 https://movie.douban.com/subject/1292646/

◎片 长 144 分钟

◎导 演 布莱恩·德·帕尔玛 Brian De Palma (id:1012516)

◎编 剧 大卫·凯普 David Koepp (id:1019071)

◎演 员 阿尔·帕西诺 Al Pacino (id:1054451)

西恩·潘 Sean Penn (id:1054527)

佩内洛普·安·米勒 Penelope Ann Miller (id:1013868)

约翰·雷吉扎莫 John Leguizamo (id:1010561)

维果·莫腾森 Viggo Mortensen (id:1054520)

詹姆斯·瑞布霍恩 James Rebhorn (id:1049801)

亚德里安·帕斯达 Adrian Pasdar (id:1044919)

路易斯·古兹曼 Luis Guzmán (id:1049639)

英格丽德·罗杰斯 Ingrid Rogers (id:1138902)

Daniel Margotta Daniel Margotta (id:1290982)

约翰·霍伊特 John Hoyt (id:1287027)

Dan Brennan Dan Brennan (id:1279243)

帕特里克·道尔 Patrick Doyle (id:1000556)

比尔·潘科 Bill Pankow (id:1293896)

邦妮·蒂默曼 Bonnie Timmermann (id:1299285)

莱斯利·波普 Leslie A. Pope (id:1276528)

Michael Laudati Michael Laudati (id:1289506)

Michael Kriston Michael Kriston (id:1289049)

米尔顿·布拉斯 Milton Buras (id:1279615)

温迪·罗杰斯 Wendy Rogers (id:1295925)

◎标 签 阿尔·帕西诺 / 黑帮 / 犯罪 / 美国 / AlPacino / 美国电影 / 1993 / 剧情

◎简 介

卡利多(阿尔?帕西诺 Al Pacino 饰)因贩毒而被判入狱30年,在他入狱的第五年,律师大卫(西恩?潘 Sean Penn 饰)将他从监狱救了出来。卡利多出狱后的理想就是赚够7万5千美元离开这里和还清欠大卫的人情。决心洗心革面的卡利多却摆脱不了命运的捉弄,当他勉为其难地答应表弟作为旁观者参加一次毒品交易,他卷入了一场黑吃黑的勾当。当他保住了毒品后,他从毒贩那里获得了2万5千美元作为酬劳。

卡利多将这笔钱入股到一家名为天堂乐园的夜总会后,他开始寻找他的女人,凯尔。当卡利多找到凯尔后,两人的关系在微妙中回旋。这时,大卫收了一位黑手党首领的钱,答应帮助他的伙伴越狱。于是,大卫找来了卡利多帮忙。虽然凯尔苦苦哀求,为了报恩,卡利多还是答应了去执行这一危险任务……

◎获奖情况 (共2项)

第51届金球奖 (1994)

电影类 最佳男配角(提名)

└──西恩·潘 (id:1054527)

电影类 最佳女配角(提名)

└──佩内洛普·安·米勒 (id:1013868)

  1. ##### MediaInfo ######

  2. General

  3. Unique ID : 281491122490829767395346788226794522276 (0xD3C537DB325BE98FC4213D8E440C06A4)

  4. Complete name : [email protected]DQ.COM.mkv

  5. Format : Matroska

  6. Format version : Version 4

  7. File size : 24.4 GiB

  8. Duration : 2 h 24 min

  9. Overall bit rate mode : Variable

  10. Overall bit rate : 24.2 Mb/s

  11. Movie name : Carlitos Way 1993 2160p HDR UHD BluRay DTS [email protected]

  12. Encoded date : UTC 2021-10-10 03:08:30

  13. Writing application : mkvmerge v38.0.0 ('The Silent Type') 64-bit

  14. Writing library : libebml v1.3.9 + libmatroska v1.5.2


  15. Video

  16. ID : 1

  17. Format : HEVC

  18. Format/Info : High Efficiency Video Coding

  19. Format profile : Main [email protected]@High

  20. HDR format : SMPTE ST 2086, HDR10 compatible

  21. Codec ID : V_MPEGH/ISO/HEVC

  22. Duration : 2 h 24 min

  23. Bit rate : 20.7 Mb/s

  24. Width : 3 840 pixels

  25. Height : 1 632 pixels

  26. Display aspect ratio : 2.35:1

  27. Frame rate mode : Constant

  28. Frame rate : 23.976 (24000/1001/53354) FPS

  29. Color space : YUV

  30. Chroma subsampling : 4:2:0

  31. Bit depth : 10 bits

  32. Bits/(Pixel*Frame) : 0.138

  33. Stream size : 20.8 GiB (86%)

  34. Title : @HDSky

  35. Writing library : x265 - H.265/HEVC codec

  36. Default : Yes

  37. Forced : No

  38. Color range : Limited

  39. Color primaries : BT.2020

  40. Transfer characteristics : PQ

  41. Matrix coefficients : BT.2020 non-constant

  42. Mastering display color primaries : Display P3

  43. Mastering display luminance : min: 0.0020 cd/m2, max: 1000 cd/m2

  44. Maximum Content Light Level : 739 cd/m2

  45. Maximum Frame-Average Light Level : 331 cd/m2


  46. Audio

  47. ID : 2

  48. Format : DTS XLL X

  49. Format/Info : Digital Theater Systems

  50. Commercial name : DTS-HD Master Audio

  51. Codec ID : A_DTS

  52. Duration : 2 h 24 min

  53. Bit rate mode : Variable

  54. Bit rate : 3 452 kb/s

  55. Channel(s) : 8 channels

  56. Channel(s)_Original : Object Based

  57. ChannelLayout_Original : Object Based

  58. Sampling rate : 48.0 kHz

  59. Frame rate : 93.750 FPS (512 SPF)

  60. Bit depth : 24 bits

  61. Stream size : 3.47 GiB (14%)

  62. Title : English

  63. Language : English

  64. Default : Yes

  65. Forced : No


  66. Text #1

  67. ID : 3

  68. Format : PGS

  69. Muxing mode : zlib

  70. Codec ID : S_HDMV/PGS

  71. Codec ID/Info : Picture based subtitle format used on BDs/HD-DVDs

  72. Duration : 2 h 18 min

  73. Bit rate : 38.2 kb/s

  74. Count of elements : 3224

  75. Stream size : 37.8 MiB (0%)

  76. Title : ENG

  77. Language : English

  78. Default : Yes

  79. Forced : No


  80. Text #2

  81. ID : 4

  82. Format : PGS

  83. Muxing mode : zlib

  84. Codec ID : S_HDMV/PGS

  85. Codec ID/Info : Picture based subtitle format used on BDs/HD-DVDs

  86. Duration : 2 h 20 min

  87. Bit rate : 26.7 kb/s

  88. Count of elements : 3134

  89. Stream size : 26.8 MiB (0%)

  90. Title : CHT

  91. Language : Chinese

  92. Default : No

  93. Forced : No


  94. Text #3

  95. ID : 5

  96. Format : PGS

  97. Muxing mode : zlib

  98. Codec ID : S_HDMV/PGS

  99. Codec ID/Info : Picture based subtitle format used on BDs/HD-DVDs

  100. Duration : 2 h 20 min

  101. Bit rate : 24.9 kb/s

  102. Count of elements : 3052

  103. Stream size : 24.9 MiB (0%)

  104. Title : CHT

  105. Language : Chinese

  106. Default : No

  107. Forced : No


  108. Menu

  109. 00:00:00.000 : en:Chapter 01

  110. 00:05:03.470 : en:Chapter 02

  111. 00:17:43.312 : en:Chapter 03

  112. 00:27:41.535 : en:Chapter 04

  113. 00:32:02.671 : en:Chapter 05

  114. 00:36:36.528 : en:Chapter 06

  115. 00:45:26.557 : en:Chapter 07

  116. 00:50:38.619 : en:Chapter 08

  117. 00:58:40.517 : en:Chapter 09

  118. 01:03:34.352 : en:Chapter 10

  119. 01:11:44.258 : en:Chapter 11

  120. 01:17:28.227 : en:Chapter 12

  121. 01:24:47.040 : en:Chapter 13

  122. 01:33:48.748 : en:Chapter 14

  123. 01:45:23.275 : en:Chapter 15

  124. 01:52:32.245 : en:Chapter 16

  125. 01:57:40.637 : en:Chapter 17

  126. 02:03:31.362 : en:Chapter 18

  127. 02:14:01.367 : en:Chapter 19

  128. 02:19:07.297 : en:Chapter 20




复制代码



文件下载


除非特别注明,本文『情枭的黎明[中文字幕].Carlitos.Way.1993.2160p.HDR.UHD.BluRay.DTS.x265-10bit 24.36GB』来源于互联网机器人自动抓取,非本站原创。 浮游电影网不对本文拥有版权,如有侵犯,请联系邮箱:fuyouu#yandex.com[#换成@]投诉。我们会在15个工作日内删除。 但烦请转载时请标明出处:“本文转载于『浮游电影网』,原文地址:https://www.fuyouu.com/14880.html

评论吧骚年!

发表你的见解   

昵称*

E-mail*(建议输入,以便收到博主回复的提示邮件)

验证码*

您可以使用eMule或eMule Mod(Windows)、aMule(Win、Linux、Mac)等软件下载eD2k链接。。
eMule收藏集(.emulecollection)文件是您选中的所有链接的列表文件。eMule可以直接下载它们。
按住SHIFT键选择可以选中多个选择框。
可用文件名和大小选择器来选择文件。
文件名选择器帮您根据文件名称或后缀来选择文件。不分大小写。
符号使用:
和:空格( )、+
不包含:-
或:|
转义:一对英文引号("");
匹配开头:^
匹配结尾:$
例如:
选中所有名称中包含有“eMule”或“0.49c”字眼,但不包含有“exe”字眼的:emule|0.49c -exe
选中所有名称的开头是“eMule”,结尾是“0.49c”的:^emule 0.49c$
选中所有名称中带有“eMule 0.49c”的(必须是“eMule 0.49c”,中间没有别的字符,不能是“eMule fake 0.49c”),需要转义:"emule 0.49c"
大小选择器帮您根据文件大小选择文件。