当前位置: 首页 >> 欧美电影 >> 在劫难逃[简繁字幕].Abduction.2011.BluRay.1080p.DTS-HD.MA5.1.x265.10bit 11.57GB >> 正文

在劫难逃[简繁字幕].Abduction.2011.BluRay.1080p.DTS-HD.MA5.1.x265.10bit 11.57GB

2021年10月11日 12:54:32     电影发布:来源于网络     电影分类:欧美电影     评论(0)    

在劫难逃[简繁字幕].Abduction.2011.BluRay.1080p.DTS HD.MA5.1.x265.10bit 11.57GB 悬疑片 惊悚片 动作片 剧情片 欧美电影  第1张

◎译 名 在劫难逃 / 喋血新世纪(港) / 绑架

◎片 名 Abduction

◎年 代 2011

◎产 地 美国

◎类 别 剧情 / 动作 / 悬疑 / 惊悚

◎语 言 英语

◎上映日期 2012-07-27(中国大陆) / 2011-09-23(美国)

◎IMDb链接 https://www.imdb.com/title/tt1600195/

◎豆瓣评分 5.7/10 (16902人评价)

◎豆瓣链接 https://movie.douban.com/subject/4308001/

◎片 长 106分钟(美国)

◎导 演 约翰·辛格顿 John Singleton (id:1013948)

◎编 剧 肖恩·克里斯汀森 Shawn Christensen (id:1321506)

◎演 员 泰勒·洛特纳 Taylor Lautner (id:1018979)

莉莉·柯林斯 Lily Collins (id:1018977)

阿尔弗雷德·莫里纳 Alfred Molina (id:1017897)

西格妮·韦弗 Sigourney Weaver (id:1053569)

迈克尔·恩奎斯特 Michael Nyqvist (id:1041155)

詹森·艾萨克 Jason Isaacs (id:1017916)

玛丽亚·贝罗 Maria Bello (id:1002674)

丹泽尔·惠特克 Denzel Whitaker (id:1018096)

伊丽莎白·霍尔姆 Elisabeth R?hm (id:1144396)

赖安·帕特里克 Ryan Patrick (id:1250892)

罗伊·李 Roy Lee (id:1000791)

帕特里克·克劳利 Patrick Crowley (id:1382980)

泰勒·洛特纳 Taylor Lautner (id:1018979)

小彼得·孟席斯 Peter Menzies Jr. (id:1443467)

Brad Martin Brad Martin (id:1014368)

◎标 签 动作 / 美国 / 悬疑 / 特工 / 2011 / 剧情 / 绑架 / 爱情

◎简 介

年轻人内森(泰勒·洛特纳 Taylor Lautner 饰)拥有一个看上去颇为完美的家庭,从小他生活在一个幸福的环境当中,不过自懂事起,内森总觉得自己过着形同虚设的生活,直到有一天他无意在失踪人口的网页里看到有人在寻找自己,盯着显示器里自己幼年的照片,内森才 明白自己朝夕相处的“双亲”,竟然另有特殊身份,内森这才明白原来20多年来,自己一直活在一个精心编织的谎言当中。

内森准备查明真相,他清楚自己所谓的“父母”根本信不过,于是他只能将这一切告诉邻居凯伦(莉莉·柯林斯 Lily Collins 饰)。正当内森和凯伦想搞清楚这是怎么一回事时,却意外的遭遇了职业杀手的追杀,他的“父母”在自己的眼前被害,警察把他当成凶手来追捕,于是内森和凯伦只能开始了惊心动魄的逃亡生涯,而他也在逃亡当中,离真相越来越近……

◎获奖情况 (共3项)

第32届金酸莓奖 (2012)

最差男主角(提名)

└──泰勒·洛特纳 (id:1018979)

第14届美国青少年选择奖 (2012)

最佳动作片

最佳动作片男演员

└──泰勒·洛特纳 (id:1018979)

  1. ##### MediaInfo ######

  2. General

  3. Unique ID : 160539873884011927181367937689832909020 (0x78C6DAE3C782CBCE7B43A650F00BE8DC)

  4. Complete name : [email protected].COM.mkv

  5. Format : Matroska

  6. Format version : Version 4

  7. File size : 11.6 GiB

  8. Duration : 1 h 45 min

  9. Overall bit rate mode : Variable

  10. Overall bit rate : 15.6 Mb/s

  11. Encoded date : UTC 2021-10-10 05:08:02

  12. Writing application : mkvmerge v49.0.0 ('Sick Of Losing Soulmates') 64-bit

  13. Writing library : libebml v1.4.0 + libmatroska v1.6.1

  14. Cover : Yes

  15. Attachments : WenQuanWeiMiHei-1.ttf / cover.jpg


  16. Video

  17. ID : 1

  18. Format : HEVC

  19. Format/Info : High Efficiency Video Coding

  20. Format profile : Main [email protected]@High

  21. Codec ID : V_MPEGH/ISO/HEVC

  22. Duration : 1 h 45 min

  23. Bit rate : 10.5 Mb/s

  24. Width : 1 920 pixels

  25. Height : 800 pixels

  26. Display aspect ratio : 2.40:1

  27. Frame rate mode : Constant

  28. Frame rate : 23.976 (24000/1001/53354) FPS

  29. Color space : YUV

  30. Chroma subsampling : 4:2:0

  31. Bit depth : 10 bits

  32. Bits/(Pixel*Frame) : 0.286

  33. Stream size : 7.81 GiB (67%)

  34. Writing library : x265 3.4+14-gd419c7152:[Windows][GCC 10.2.0][64 bit] 10bit

  35. Encoding settings : cpuid=533541111039 / frame-threads=4 / numa-pools=16 / wpp / pmode / pme / no-psnr / no-ssim / log-level=2 / input-csp=1 / input-res=1920x800 / interlace=0 / total-frames=152466 / level-idc=51 / high-tier=1 / uhd-bd=0 / ref=5 / no-allow-non-conformance / no-repeat-headers / annexb / no-aud / no-hrd / info / hash=0 / no-temporal-layers / open-gop / min-keyint=24 / keyint=240 / gop-lookahead=0 / bframes=6 / b-adapt=2 / b-pyramid / bframe-bias=0 / rc-lookahead=40 / lookahead-slices=0 / NTMzNTQ=uuDQuD2mJt9fsCf / scenecut=40 / hist-scenecut=0 / radl=0 / no-splice / no-intra-refresh / ctu=32 / min-cu-size=8 / no-rect / no-amp / max-tu-size=32 / tu-inter-depth=3 / tu-intra-depth=3 / limit-tu=4 / rdoq-level=2 / dynamic-rd=0.00 / no-ssim-rd / signhide / no-tskip / nr-intra=0 / nr-inter=0 / no-constrained-intra / no-strong-intra-smoothing / max-merge=4 / limit-refs=1 / limit-modes / me=3 / subme=4 / merange=25 / temporal-mvp / no-frame-dup / no-hme / weightp / weightb / no-analyze-src-pics / deblock=-3:-3 / no-sao / no-sao-non-deblock / rd=6 / selective-sao=0 / no-early-skip / rskip / no-fast-intra / no-tskip-fast / no-cu-lossless / b-intra / no-splitrd-skip / rdpenalty=0 / psy-rd=2.00 / psy-rdoq=1.00 / no-rd-refine / no-lossless / cbqpoffs=0 / crqpoffs=0 / rc=crf / crf=17.0 / qcomp=0.65 / qpstep=4 / stats-write=0 / stats-read=0 / vbv-maxrate=80000 / vbv-bufsize=80000 / vbv-init=0.9 / crf-max=0.0 / crf-min=0.0 / ipratio=1.40 / pbratio=1.30 / aq-mode=2 / aq-strength=0.85 / cutree / zone-count=0 / no-strict-cbr / qg-size=32 / no-rc-grain / qpmax=69 / qpmin=0 / no-const-vbv / sar=1 / overscan=0 / videoformat=5 / range=0 / colorprim=1 / transfer=1 / colormatrix=1 / chromaloc=0 / display-window=0 / cll=0,0 / min-luma=0 / max-luma=1023 / log2-max-poc-lsb=8 / vui-timing-info / vui-hrd-info / slices=1 / no-opt-qp-pps / no-opt-ref-list-length-pps / no-multi-pass-opt-rps / scenecut-bias=0.05 / hist-threshold=0.03 / no-opt-cu-delta-qp / no-aq-motion / no-hdr10 / no-hdr10-opt / no-dhdr10-opt / no-idr-recovery-sei / analysis-reuse-level=0 / analysis-save-reuse-level=0 / analysis-load-reuse-level=0 / scale-factor=0 / refine-intra=0 / refine-inter=0 / refine-mv=1 / refine-ctu-distortion=0 / no-limit-sao / ctu-info=0 / no-lowpass-dct / refine-analysis-type=0 / copy-pic=1 / max-ausize-factor=1.0 / no-dynamic-refine / no-single-sei / no-hevc-aq / no-svt / no-field / qp-adaptation-range=1.00 / no-scenecut-aware-qpconformance-window-offsets / right=0 / bottom=0 / NTMzNTQ= / decoder-max-rate=0

  36. Language : English

  37. Default : Yes

  38. Forced : No

  39. Color range : Limited

  40. Color primaries : BT.709

  41. Transfer characteristics : BT.709

  42. Matrix coefficients : BT.709


  43. Audio

  44. ID : 2

  45. Format : DTS XLL

  46. Format/Info : Digital Theater Systems

  47. Commercial name : DTS-HD Master Audio

  48. Codec ID : A_DTS

  49. Duration : 1 h 45 min

  50. Bit rate mode : Variable

  51. Bit rate : 4 992 kb/s

  52. Channel(s) : 8 channels

  53. Channel layout : C L R LFE Lb Rb Lss Rss

  54. Sampling rate : 48.0 kHz

  55. Frame rate : 93.750 FPS (512 SPF)

  56. Bit depth : 24 bits

  57. Compression mode : Lossless

  58. Stream size : 3.70 GiB (32%)

  59. Language : English

  60. Default : Yes

  61. Forced : No


  62. Text #1

  63. ID : 3

  64. Format : PGS

  65. Codec ID : S_HDMV/PGS

  66. Codec ID/Info : Picture based subtitle format used on BDs/HD-DVDs

  67. Duration : 1 h 40 min

  68. Bit rate : 38.2 kb/s

  69. Count of elements : 2668

  70. Stream size : 27.5 MiB (0%)

  71. Title : eng

  72. Language : English

  73. Default : No

  74. Forced : No


  75. Text #2

  76. ID : 4

  77. Format : PGS

  78. Codec ID : S_HDMV/PGS

  79. Codec ID/Info : Picture based subtitle format used on BDs/HD-DVDs

  80. Duration : 1 h 38 min

  81. Bit rate : 26.1 kb/s

  82. Count of elements : 2378

  83. Stream size : 18.4 MiB (0%)

  84. Title : Chs/SUP 简体

  85. Language : Chinese

  86. Default : Yes

  87. Forced : No


  88. Text #3

  89. ID : 5

  90. Format : PGS

  91. Codec ID : S_HDMV/PGS

  92. Codec ID/Info : Picture based subtitle format used on BDs/HD-DVDs

  93. Duration : 1 h 38 min

  94. Bit rate : 26.8 kb/s

  95. Count of elements : 2378

  96. Stream size : 19.0 MiB (0%)

  97. Title : Cht/SUP 繁体

  98. Language : Chinese

  99. Default : No

  100. Forced : No


  101. Menu

  102. 00:00:00.000 : Chapter 01

  103. 00:10:02.727 : Chapter 02

  104. 00:16:57.099 : Chapter 03

  105. 00:21:46.972 : Chapter 04

  106. 00:27:36.362 : Chapter 05

  107. 00:32:41.667 : Chapter 06

  108. 00:39:50.262 : Chapter 07

  109. 00:49:16.953 : Chapter 08

  110. 00:53:47.682 : Chapter 09

  111. 00:57:47.880 : Chapter 10

  112. 01:07:16.406 : Chapter 11

  113. 01:12:23.171 : Chapter 12

  114. 01:19:39.941 : Chapter 13

  115. 01:23:16.240 : Chapter 14

  116. 01:29:43.377 : Chapter 15

  117. 01:36:32.077 : Chapter 16



文件下载


除非特别注明,本文『在劫难逃[简繁字幕].Abduction.2011.BluRay.1080p.DTS-HD.MA5.1.x265.10bit 11.57GB』来源于互联网机器人自动抓取,非本站原创。 浮游电影网不对本文拥有版权,如有侵犯,请联系邮箱:fuyouu#yandex.com[#换成@]投诉。我们会在15个工作日内删除。 但烦请转载时请标明出处:“本文转载于『浮游电影网』,原文地址:https://www.fuyouu.com/14878.html

评论吧骚年!

发表你的见解   

昵称*

E-mail*(建议输入,以便收到博主回复的提示邮件)

验证码*

您可以使用eMule或eMule Mod(Windows)、aMule(Win、Linux、Mac)等软件下载eD2k链接。。
eMule收藏集(.emulecollection)文件是您选中的所有链接的列表文件。eMule可以直接下载它们。
按住SHIFT键选择可以选中多个选择框。
可用文件名和大小选择器来选择文件。
文件名选择器帮您根据文件名称或后缀来选择文件。不分大小写。
符号使用:
和:空格( )、+
不包含:-
或:|
转义:一对英文引号("");
匹配开头:^
匹配结尾:$
例如:
选中所有名称中包含有“eMule”或“0.49c”字眼,但不包含有“exe”字眼的:emule|0.49c -exe
选中所有名称的开头是“eMule”,结尾是“0.49c”的:^emule 0.49c$
选中所有名称中带有“eMule 0.49c”的(必须是“eMule 0.49c”,中间没有别的字符,不能是“eMule fake 0.49c”),需要转义:"emule 0.49c"
大小选择器帮您根据文件大小选择文件。