当前位置: 首页 >> 欧美电影 >> 大地惊雷[繁体字幕].True.Grit.1969.BluRay.1080p.DTS-HD.MA5.1.x265.10bit 14.13GB >> 正文

大地惊雷[繁体字幕].True.Grit.1969.BluRay.1080p.DTS-HD.MA5.1.x265.10bit 14.13GB

2021年10月11日 12:49:13     电影发布:来源于网络     电影分类:欧美电影     评论(0)    

大地惊雷[繁体字幕].True.Grit.1969.BluRay.1080p.DTS HD.MA5.1.x265.10bit 14.13GB 西部 冒险片 剧情片 欧美电影  第1张

◎译 名 大地惊雷 / 独眼龙双枪歼四虎(港) / 真正的勇敢

◎片 名 True Grit

◎年 代 1969

◎产 地 美国

◎类 别 剧情 / 西部 / 冒险

◎语 言 英语

◎上映日期 1969-06-11(美国)

◎IMDb链接 https://www.imdb.com/title/tt0065126/

◎豆瓣评分 7.8/10 (3406人评价)

◎豆瓣链接 https://movie.douban.com/subject/1293324/

◎片 长 128分钟

◎导 演 亨利·哈撒韦 Henry Hathaway (id:1032387)

◎编 剧 查尔斯·波蒂斯 Charles Portis (id:1014374)

玛格丽特·罗伯茨 Marguerite Roberts (id:1051143)

◎演 员 约翰·韦恩 John Wayne (id:1017917)

格伦·坎贝尔 Glen Campbell (id:1055899)

金·达比 Kim Darby (id:1009309)

杰里米·斯莱特 Jeremy Slate (id:1004779)

罗伯特·杜瓦尔 Robert Duvall (id:1013776)

丹尼斯·霍珀 Dennis Hopper (id:1044720)

阿尔弗雷德·赖德 Alfred Ryder (id:1140651)

斯特罗瑟·马丁 Strother Martin (id:1054839)

杰夫·科里 Jeff Corey (id:1025313)

埃尔默·伯恩斯坦 Elmer Bernstein (id:1002856)

◎标 签 美国 / 西部片 / 西部 / 美国电影 / 1969 / 约翰韦恩 / JohnWayne / 1960s

◎简 介

十四岁女孩玛蒂·罗斯(金·达比 Kim Darby 饰)的父亲被流浪汉汤姆·钱尼(杰夫·科里 Jeff Corey 饰)所杀,假小子罗斯发誓要为父报仇。然而狡猾的钱尼已藏身印第安人部落。嗜酒如命的独眼法警鲁本·科格本(约翰·韦恩 John Wayne 饰)是西部远近闻名 的法警之一,罗斯慕名找到他,雇佣鲁本前往追杀凶手钱尼。与此同时,来自德克萨斯州的年轻人贝夫(格伦·坎贝尔 Glen Campbell 饰)也在追捕钱尼落案。鲁本被德克萨斯政府高额的悬赏所吸引,也希望借贝夫的力量一举歼灭强盗派普(罗伯特·杜瓦尔 Robert Duvall 饰)一伙。鲁本和贝夫商量甩掉碍手碍脚的罗斯,然而倔强的罗斯一路追随他们。经过一番激烈的争斗,机智勇敢的鲁本警长单枪匹马勇斗匪徒,押解着四名逃犯凯旋而归。

约翰·韦恩凭借本片荣获1970年第42届奥斯卡金像奖最佳男主角...

◎获奖情况 (共2项)

第42届奥斯卡金像奖 (1970)

最佳男主角

└──约翰·韦恩 (id:1017917)

最佳原创歌曲(提名)

  1. ##### MediaInfo ######

  2. General

  3. Unique ID : 118239554348103726648006187948265592476 (0x58F41C1E03FD728D34E434D8B022569C)

  4. Complete name : [email protected].COM.mkv

  5. Format : Matroska

  6. Format version : Version 4

  7. File size : 14.1 GiB

  8. Duration : 2 h 8 min

  9. Overall bit rate mode : Variable

  10. Overall bit rate : 15.8 Mb/s

  11. Encoded date : UTC 2021-10-09 15:53:14

  12. Writing application : mkvmerge v49.0.0 ('Sick Of Losing Soulmates') 64-bit

  13. Writing library : libebml v1.4.0 + libmatroska v1.6.1


  14. Video

  15. ID : 1

  16. Format : HEVC

  17. Format/Info : High Efficiency Video Coding

  18. Format profile : Main [email protected]@High

  19. Codec ID : V_MPEGH/ISO/HEVC

  20. Duration : 2 h 8 min

  21. Bit rate : 12.1 Mb/s

  22. Width : 1 920 pixels

  23. Height : 1 080 pixels

  24. Display aspect ratio : 16:9

  25. Frame rate mode : Constant

  26. Frame rate : 23.976 (24000/1001/53354) FPS

  27. Color space : YUV

  28. Chroma subsampling : 4:2:0

  29. Bit depth : 10 bits

  30. Bits/(Pixel*Frame) : 0.244

  31. Stream size : 10.8 GiB (77%)

  32. Title : HEVC, [email protected]@High, 24/1.001 fps @ 12116 kbps

  33. Writing library : x265 3.4+14-gd419c7152:[Windows][GCC 10.2.0][64 bit] 10bit

  34. Encoding settings : cpuid=533541111039 / frame-threads=4 / numa-pools=16 / wpp / pmode / pme / no-psnr / no-ssim / log-level=2 / input-csp=1 / input-res=1920x1080 / interlace=0 / total-frames=184248 / level-idc=51 / high-tier=1 / uhd-bd=0 / ref=5 / no-allow-non-conformance / no-repeat-headers / annexb / no-aud / no-hrd / info / hash=0 / no-temporal-layers / open-gop / min-keyint=24 / keyint=240 / gop-lookahead=0 / bframes=6 / b-adapt=2 / b-pyramid / bframe-bias=0 / rc-lookahead=40 / lookahead-slices=0 / NTMzNTQ=uuDQuD2mJt9fsCf / scenecut=40 / hist-scenecut=0 / radl=0 / no-splice / no-intra-refresh / ctu=32 / min-cu-size=8 / no-rect / no-amp / max-tu-size=32 / tu-inter-depth=3 / tu-intra-depth=3 / limit-tu=4 / rdoq-level=2 / dynamic-rd=0.00 / no-ssim-rd / signhide / no-tskip / nr-intra=0 / nr-inter=0 / no-constrained-intra / no-strong-intra-smoothing / max-merge=4 / limit-refs=1 / limit-modes / me=3 / subme=4 / merange=25 / temporal-mvp / no-frame-dup / no-hme / weightp / weightb / no-analyze-src-pics / deblock=-3:-3 / no-sao / no-sao-non-deblock / rd=6 / selective-sao=0 / no-early-skip / rskip / no-fast-intra / no-tskip-fast / no-cu-lossless / b-intra / no-splitrd-skip / rdpenalty=0 / psy-rd=2.00 / psy-rdoq=1.00 / no-rd-refine / no-lossless / cbqpoffs=0 / crqpoffs=0 / rc=crf / crf=19.5 / qcomp=0.65 / qpstep=4 / stats-write=0 / stats-read=0 / vbv-maxrate=80000 / vbv-bufsize=80000 / vbv-init=0.9 / crf-max=0.0 / crf-min=0.0 / ipratio=1.40 / pbratio=1.30 / aq-mode=2 / aq-strength=0.85 / cutree / zone-count=0 / no-strict-cbr / qg-size=32 / no-rc-grain / qpmax=69 / qpmin=0 / no-const-vbv / sar=1 / overscan=0 / videoformat=5 / range=0 / colorprim=1 / transfer=1 / colormatrix=1 / chromaloc=0 / display-window=0 / cll=0,0 / min-luma=0 / max-luma=1023 / log2-max-poc-lsb=8 / vui-timing-info / vui-hrd-info / slices=1 / no-opt-qp-pps / no-opt-ref-list-length-pps / no-multi-pass-opt-rps / scenecut-bias=0.05 / hist-threshold=0.03 / no-opt-cu-delta-qp / no-aq-motion / no-hdr10 / no-hdr10-opt / no-dhdr10-opt / no-idr-recovery-sei / analysis-reuse-level=0 / analysis-save-reuse-level=0 / analysis-load-reuse-level=0 / scale-factor=0 / refine-intra=0 / refine-inter=0 / refine-mv=1 / refine-ctu-distortion=0 / no-limit-sao / ctu-info=0 / no-lowpass-dct / refine-analysis-type=0 / copy-pic=1 / max-ausize-factor=1.0 / no-dynamic-refine / no-single-sei / no-hevc-aq / no-svt / no-field / qp-adaptation-range=1.00 / no-scenecut-aware-qpconformance-window-offsets / right=0 / bottom=0 / NTMzNTQ= / decoder-max-rate=0

  35. Language : English

  36. Default : Yes

  37. Forced : No

  38. Color range : Limited

  39. Color primaries : BT.709

  40. Transfer characteristics : BT.709

  41. Matrix coefficients : BT.709


  42. Audio #1

  43. ID : 2

  44. Format : DTS XLL

  45. Format/Info : Digital Theater Systems

  46. Commercial name : DTS-HD Master Audio

  47. Codec ID : A_DTS

  48. Duration : 2 h 8 min

  49. Bit rate mode : Variable

  50. Bit rate : 3 238 kb/s

  51. Channel(s) : 6 channels

  52. Channel layout : C L R Ls Rs LFE

  53. Sampling rate : 48.0 kHz

  54. Frame rate : 93.750 FPS (512 SPF)

  55. Bit depth : 24 bits

  56. Compression mode : Lossless

  57. Stream size : 2.90 GiB (21%)

  58. Title : English DTS-HD Master Audio 5.1 @ 3238 kbps

  59. Language : English

  60. Default : Yes

  61. Forced : No


  62. Audio #2

  63. ID : 3

  64. Format : AC-3

  65. Format/Info : Audio Coding 3

  66. Commercial name : Dolby Digital

  67. Codec ID : A_AC3

  68. Duration : 2 h 8 min

  69. Bit rate mode : Constant

  70. Bit rate : 224 kb/s

  71. Channel(s) : 2 channels

  72. Channel layout : L R

  73. Sampling rate : 48.0 kHz

  74. Frame rate : 31.250 FPS (1536 SPF)

  75. Compression mode : Lossy

  76. Stream size : 205 MiB (1%)

  77. Title : English Dolby Digital Audio 2.0 @ 224 kbps Commentary

  78. Language : English

  79. Service kind : Complete Main

  80. Default : No

  81. Forced : No


  82. Text #1

  83. ID : 4

  84. Format : PGS

  85. Codec ID : S_HDMV/PGS

  86. Codec ID/Info : Picture based subtitle format used on BDs/HD-DVDs

  87. Duration : 2 h 5 min

  88. Bit rate : 46.3 kb/s

  89. Count of elements : 2812

  90. Stream size : 41.4 MiB (0%)

  91. Title : Eng/SUP

  92. Language : English

  93. Default : No

  94. Forced : No


  95. Text #2

  96. ID : 5

  97. Format : PGS

  98. Codec ID : S_HDMV/PGS

  99. Codec ID/Info : Picture based subtitle format used on BDs/HD-DVDs

  100. Duration : 2 h 6 min

  101. Bit rate : 47.6 kb/s

  102. Count of elements : 3009

  103. Stream size : 43.2 MiB (0%)

  104. Title : Eng/SUP SDH

  105. Language : English

  106. Default : No

  107. Forced : No


  108. Text #3

  109. ID : 6

  110. Format : PGS

  111. Codec ID : S_HDMV/PGS

  112. Codec ID/Info : Picture based subtitle format used on BDs/HD-DVDs

  113. Duration : 2 h 7 min

  114. Bit rate : 57.0 kb/s

  115. Count of elements : 3138

  116. Stream size : 52.0 MiB (0%)

  117. Title : Eng/SUP Commentary

  118. Language : English

  119. Default : No

  120. Forced : No


  121. Text #4

  122. ID : 7

  123. Format : PGS

  124. Codec ID : S_HDMV/PGS

  125. Codec ID/Info : Picture based subtitle format used on BDs/HD-DVDs

  126. Duration : 2 h 6 min

  127. Bit rate : 30.3 kb/s

  128. Count of elements : 2818

  129. Stream size : 27.4 MiB (0%)

  130. Title : Cht/SUP 原盘繁体(HK)

  131. Language : Chinese

  132. Default : No

  133. Forced : No


  134. Text #5

  135. ID : 8

  136. Format : PGS

  137. Codec ID : S_HDMV/PGS

  138. Codec ID/Info : Picture based subtitle format used on BDs/HD-DVDs

  139. Duration : 2 h 6 min

  140. Bit rate : 31.2 kb/s

  141. Count of elements : 2810

  142. Stream size : 28.2 MiB (0%)

  143. Title : Cht/SUP 原盘繁体(TW)

  144. Language : Chinese

  145. Default : Yes

  146. Forced : No


  147. Menu

  148. 00:00:00.000 : en:第 01 章

  149. 00:12:54.774 : en:第 02 章

  150. 00:18:38.451 : en:第 03 章

  151. 00:31:20.170 : en:第 04 章

  152. 00:48:08.052 : en:第 05 章

  153. 00:59:50.796 : en:第 06 章

  154. 01:18:32.458 : en:第 07 章

  155. 01:25:56.401 : en:第 08 章

  156. 01:35:45.698 : en:第 09 章

  157. 01:42:14.962 : en:第 10 章

  158. 01:48:13.070 : en:第 11 章

  159. 02:01:59.103 : en:第 12 章

  160. 02:07:05.993 : en:第 13 章




复制代码



文件下载


除非特别注明,本文『大地惊雷[繁体字幕].True.Grit.1969.BluRay.1080p.DTS-HD.MA5.1.x265.10bit 14.13GB』来源于互联网机器人自动抓取,非本站原创。 浮游电影网不对本文拥有版权,如有侵犯,请联系邮箱:fuyouu#yandex.com[#换成@]投诉。我们会在15个工作日内删除。 但烦请转载时请标明出处:“本文转载于『浮游电影网』,原文地址:https://www.fuyouu.com/14874.html

评论吧骚年!

发表你的见解   

昵称*

E-mail*(建议输入,以便收到博主回复的提示邮件)

验证码*

您可以使用eMule或eMule Mod(Windows)、aMule(Win、Linux、Mac)等软件下载eD2k链接。。
eMule收藏集(.emulecollection)文件是您选中的所有链接的列表文件。eMule可以直接下载它们。
按住SHIFT键选择可以选中多个选择框。
可用文件名和大小选择器来选择文件。
文件名选择器帮您根据文件名称或后缀来选择文件。不分大小写。
符号使用:
和:空格( )、+
不包含:-
或:|
转义:一对英文引号("");
匹配开头:^
匹配结尾:$
例如:
选中所有名称中包含有“eMule”或“0.49c”字眼,但不包含有“exe”字眼的:emule|0.49c -exe
选中所有名称的开头是“eMule”,结尾是“0.49c”的:^emule 0.49c$
选中所有名称中带有“eMule 0.49c”的(必须是“eMule 0.49c”,中间没有别的字符,不能是“eMule fake 0.49c”),需要转义:"emule 0.49c"
大小选择器帮您根据文件大小选择文件。