当前位置: 首页 >> 日韩电影 >> 用心棒[中文字幕].Yojimbo.1961.1080p.BluRay.x265.10bit.DTS 11.68GB >> 正文

用心棒[中文字幕].Yojimbo.1961.1080p.BluRay.x265.10bit.DTS 11.68GB

2021年10月11日 12:44:42     电影发布:来源于网络     电影分类:日韩电影     评论(0)    

用心棒[中文字幕].Yojimbo.1961.1080p.BluRay.x265.10bit.DTS 11.68GB 惊悚片 动作片 剧情片 日韩电影  第1张

◎译 名 用心棒 / 大镖客 / 保镖 / The Bodyguard / Yojimbo

◎年 代 1961

◎产 地 日本

◎类 别 剧情 / 动作 / 惊悚

◎语 言 日语

◎上映日期 1961-04-25(日本)

◎IMDb链接 https://www.imdb.com/title/tt0055630/

◎豆瓣评分 9.0/10 (37697人评价)

◎豆瓣链接 https://movie.douban.com/subject/1292515/

◎片 长 110分钟

◎导 演 黑泽明 Akira Kurosawa (id:1054529)

◎编 剧 黑泽明 Akira Kurosawa (id:1054529)

菊岛隆三 Ry?z? Kikushima (id:1288522)

◎演 员 三船敏郎 Toshir? Mifune (id:1056027)

仲代达矢 Tatsuya Nakadai (id:1036950)

司叶子 Y?ko Tsukasa (id:1025579)

山田五十铃 Isuzu Yamada (id:1008122)

加东大介 Daisuke Kat? (id:1008093)

河津清三郎 Seizabur? Kawazu (id:1051693)

志村乔 Takashi Shimura (id:1032411)

太刀川宽 Hiroshi Tachikawa (id:1359994)

夏木阳介 Yosuke Natsuki (id:1033734)

东野英治郎 Eijir? T?no (id:1159772)

藤原釜足 Kamatari Fujiwara (id:1016877)

泽村伊纪雄 Ikio Sawamura (id:1051961)

渡边笃 Atsushi Watanabe (id:1195267)

藤田进 Susumu Fujita (id:1016957)

山茶花究 Ky? Sazanka (id:1139620)

西村晃 K? Nishimura (id:1008337)

加藤武 Takeshi Kat? (id:1019752)

中谷一郎 Ichir? Nakatani (id:1097887)

堺左千夫 Sachio Sakai (id:1008508)

谷晃 Akira Tani (id:1030335)

土屋嘉男 Yoshio Tsuchiya (id:1048479)

清水元 Gen Shimizu (id:1017176)

佐田丰 Yutaka Sada (id:1003718)

大友伸 Shin ?tomo (id:1135861)

广濑正一 Sh?ichi Hirose (id:1094252)

天本英世 Eisei Amamoto (id:1016944)

大木正司 Sh?ji ?ki (id:1136593)

大村千吉 Senkichi ?mura (id:1137188)

本间文子 Noriko Honma (id:1037962)

桐野洋雄 Nadao Kirino (id:1039040)

大友纯 Jun ?tomo (id:1349722)

高木新平 Shinpei Takagi (id:1043413)

小川安三 Yasuz? Ogawa (id:1127592)

熊谷卓三 Takuz? Kumagai (id:1113834)

杰瑞·藤尾 Jerry Fujio (id:1085421)

中岛春雄 Haruo Nakajima (id:1014894)

黑泽明 Akira Kurosawa (id:1054529)

菊岛隆三 Ry?z? Kikushima (id:1288522)

佐藤胜 Masaru Sat? (id:1054483)

宫川一夫 Kazuo Miyagawa (id:1033826)

黑泽明 Akira Kurosawa (id:1054529)

出目昌伸 Masanobu Deme (id:1282217)

森谷司郎 Shir? Moritani (id:1133112)

◎标 签 日本 / 武士 / 黑白 / 经典 / 动作 / 1961 / 剧情 / 武侠

◎简 介

外表落魄邋遢的浪人武士三十郎(三船敏郎 饰)来到一个小镇,清兵卫(河津清三郎 饰)和新田丑寅(山茶花究 饰)两家恶霸在那里为争夺地盘,招兵买马经常争斗,弄得民不聊生。三十郎决定从中设计,引诱双方雇佣自己,再加入不同方造成两边拼斗,由此坐收渔利,消灭对方。 但随着丑寅弟弟卯之助(仲代达矢 饰)的加入,情况又发生了不同,他手里握有短枪,占得优势,清兵卫的势力被打败,三十郎甚至也受伤不轻。但是决战在所难免,椿三十郎独对丑寅、亥之吉等众人,身处劣势的他如何能剿灭对方呢?

◎获奖情况 (共3项)

第34届奥斯卡金像奖 (1962)

黑白片最佳服装设计(提名)

└──村木与四郎 (id:1025955)

第22届威尼斯电影节 (1961)

主竞赛单元 金狮奖 (提名)

└──黑泽明 (id:1054529)

沃尔皮杯 最佳男演员

└──三船敏郎 (id:1056027)

  1. ##### MediaInfo ######

  2. General

  3. Unique ID : 168625840296051173683563488215963277498 (0x7EDC27D05044A09E244731E2608818BA)

  4. Complete name : [email protected]

  5. Format : Matroska

  6. Format version : Version 4

  7. File size : 11.7 GiB

  8. Duration : 1 h 50 min

  9. Overall bit rate : 15.1 Mb/s

  10. Movie name : Yojimbo

  11. Encoded date : UTC 2021-10-09 05:32:56

  12. Writing application : mkvmerge v61.0.0 ('So') 64-bit

  13. Writing library : libebml v1.4.2 + libmatroska v1.6.4

  14. Cover : Yes

  15. Attachments : cover.jpg


  16. Video

  17. ID : 1

  18. Format : HEVC

  19. Format/Info : High Efficiency Video Coding

  20. Format profile : Main [email protected]@Main

  21. Codec ID : V_MPEGH/ISO/HEVC

  22. Duration : 1 h 50 min

  23. Bit rate : 13.6 Mb/s

  24. Width : 1 920 pixels

  25. Height : 816 pixels

  26. Display aspect ratio : 2.35:1

  27. Frame rate mode : Constant

  28. Frame rate : 23.976 (24000/1001/53354) FPS

  29. Color space : YUV

  30. Chroma subsampling : 4:2:0

  31. Bit depth : 10 bits

  32. Bits/(Pixel*Frame) : 0.361

  33. Stream size : 10.5 GiB (90%)

  34. Writing library : x265 3.5+2-g2b25c9ba0+45:[Windows][GCC 10.2.0][64 bit] Yuuki 10bit+8bit+12bit

  35. Encoding settings : rc=crf / crf=20.0000 / qcomp=0.70 / qpstep=4 / stats-write=0 / stats-read=0 / no-lossless / no-cu-lossless / aq-mode=3 / aq-strength=0.70 / cbqpoffs=0 / crqpoffs=0 / ipratio=1.40 / pbratio=1.30 / psy-rd=2.00 / psy-rdoq=0.00 / deblock=0:0 / ref=6 / limit-refs=1 / no-limit-modes / bframes=8 / b-adapt=2 / bframe-bias=0 / b-pyramid / b-intra / weightp / weightb / min-keyint=24 / max-keyint=240 / rc-lookahead=24 / gop-lookahead=0 / NTMzNTQ=uuDQuD2mJt9fsCf / scenecut=40 / hist-scenecut=0 / radl=0 / max-cu-size=64 / min-cu-size=8 / me=3 / subme=7 / merange=48 / rdoq-level=0 / rd=4 / rdpenalty=0 / dynamic-rd=0.00 / no-rd-refine / ----- / cutree / sao / no-rect / no-amp / no-open-gop / wpp / no-pmode / pme / no-psnr / no-ssim / nr-intra=0 / nr-inter=0 / no-constrained-intra / no-strong-intra-smoothing / max-tu-size=32 / tu-inter-depth=1 / tu-intra-depth=1 / limit-tu=0 / qg-size=32 / qpmax=69 / qpmin=0 / ----- / cpuid=533541111039 / frame-threads=4 / numa-pools=+ / log-level=2 / input-csp=1 / input-res=1920x816 / interlace=0 / level-idc=0 / high-tier=1 / uhd-bd=0 / no-allow-non-conformance / no-repeat-headers / aud / no-hrd / info / hash=0 / no-temporal-layers / lookahead-slices=0 / no-splice / no-intra-refresh / no-ssim-rd / signhide / no-tskip / max-merge=3 / temporal-mvp / no-frame-dup / no-hme / no-analyze-src-pics / no-sao-non-deblock / selective-sao=4 / early-skip / rskip / no-fast-intra / no-tskip-fast / no-splitrd-skip / zone-count=0 / no-strict-cbr / no-rc-grain / no-const-vbv / sar=0 / overscan=0 / videoformat=5 / range=0 / colorprim=2 / transfer=2 / colormatrix=2 / chromaloc=0 / display-window=0 / cll=0,0 / min-luma=0 / max-luma=1023 / log2-max-poc-lsb=8 / vui-timing-info / vui-hrd-info / slices=1 / no-opt-qp-pps / no-opt-ref-list-length-pps / no-multi-pass-opt-rps / scenecut-bias=0.05 / hist-threshold=0.03 / no-opt-cu-delta-qp / no-aq-motion / no-hdr10 / no-hdr10-opt / no-dhdr10-opt / no-idr-recovery-sei / analysis-reuse-level=0 / analysis-save-reuse-level=0 / analysis-load-reuse-level=0 / scale-factor=0 / refine-intra=0 / refine-inter=0 / refine-mv=1 / refine-ctu-distortion=0 / no-limit-sao / ctu-info=0 / no-lowpass-dct / refine-analysis-type=0 / copy-pic=1 / max-ausize-factor=1.0 / no-dynamic-refine / no-single-sei / no-hevc-aq / no-svt / no-field / qp-adaptation-range=1.00 / scenecut-aware-qp=0conformance-window-offsets / right=0 / bottom=0 / NTMzNTQ= / decoder-max-rate=0 / no-vbv-live-multi-pass

  36. Default : Yes

  37. Forced : No


  38. Audio

  39. ID : 2

  40. ID in the original source medium : 4353 (0x1101)

  41. Format : DTS

  42. Format/Info : Digital Theater Systems

  43. Codec ID : A_DTS

  44. Duration : 1 h 50 min

  45. Bit rate mode : Constant

  46. Bit rate : 1 509 kb/s

  47. Channel(s) : 3 channels

  48. Channel layout : C L R

  49. Sampling rate : 48.0 kHz

  50. Frame rate : 93.750 FPS (512 SPF)

  51. Bit depth : 24 bits

  52. Compression mode : Lossy

  53. Stream size : 1.17 GiB (10%)

  54. Language : Japanese

  55. Default : Yes

  56. Forced : No

  57. Original source medium : Blu-ray


  58. Text #1

  59. ID : 3

  60. ID in the original source medium : 4609 (0x1201)

  61. Format : PGS

  62. Muxing mode : zlib

  63. Codec ID : S_HDMV/PGS

  64. Codec ID/Info : Picture based subtitle format used on BDs/HD-DVDs

  65. Duration : 1 h 49 min

  66. Bit rate : 10.3 kb/s

  67. Count of elements : 1636

  68. Stream size : 8.07 MiB (0%)

  69. Title : chs

  70. Language : Chinese

  71. Default : Yes

  72. Forced : No

  73. Original source medium : Blu-ray


  74. Text #2

  75. ID : 4

  76. ID in the original source medium : 4610 (0x1202)

  77. Format : PGS

  78. Muxing mode : zlib

  79. Codec ID : S_HDMV/PGS

  80. Codec ID/Info : Picture based subtitle format used on BDs/HD-DVDs

  81. Duration : 1 h 49 min

  82. Bit rate : 10.4 kb/s

  83. Count of elements : 1636

  84. Stream size : 8.21 MiB (0%)

  85. Title : cht

  86. Language : Chinese

  87. Default : No

  88. Forced : No

  89. Original source medium : Blu-ray


  90. Text #3

  91. ID : 5

  92. ID in the original source medium : 4608 (0x1200)

  93. Format : PGS

  94. Muxing mode : zlib

  95. Codec ID : S_HDMV/PGS

  96. Codec ID/Info : Picture based subtitle format used on BDs/HD-DVDs

  97. Duration : 1 h 50 min

  98. Bit rate : 23.8 kb/s

  99. Count of elements : 1678

  100. Stream size : 18.8 MiB (0%)

  101. Title : eng

  102. Language : English

  103. Default : No

  104. Forced : No

  105. Original source medium : Blu-ray


  106. Menu

  107. 00:00:00.000 : Chapter 01

  108. 00:05:55.813 : Chapter 02

  109. 00:16:19.770 : Chapter 03

  110. 00:20:04.578 : Chapter 04

  111. 00:21:14.731 : Chapter 05

  112. 00:23:33.954 : Chapter 06

  113. 00:25:52.384 : Chapter 07

  114. 00:32:45.338 : Chapter 08

  115. 00:38:59.253 : Chapter 09

  116. 00:42:38.138 : Chapter 10

  117. 00:46:31.038 : Chapter 11

  118. 00:49:35.973 : Chapter 12

  119. 00:51:17.657 : Chapter 13

  120. 00:56:05.195 : Chapter 14

  121. 00:59:19.264 : Chapter 15

  122. 01:03:19.670 : Chapter 16

  123. 01:05:22.209 : Chapter 17

  124. 01:07:19.785 : Chapter 18

  125. 01:12:05.112 : Chapter 19

  126. 01:13:49.466 : Chapter 20

  127. 01:18:47.639 : Chapter 21

  128. 01:23:24.582 : Chapter 22

  129. 01:32:26.290 : Chapter 23

  130. 01:38:10.175 : Chapter 24

  131. 01:39:59.618 : Chapter 25

  132. 01:41:24.995 : Chapter 26




文件下载


除非特别注明,本文『用心棒[中文字幕].Yojimbo.1961.1080p.BluRay.x265.10bit.DTS 11.68GB』来源于互联网机器人自动抓取,非本站原创。 浮游电影网不对本文拥有版权,如有侵犯,请联系邮箱:fuyouu#yandex.com[#换成@]投诉。我们会在15个工作日内删除。 但烦请转载时请标明出处:“本文转载于『浮游电影网』,原文地址:https://www.fuyouu.com/14871.html

评论吧骚年!

发表你的见解   

昵称*

E-mail*(建议输入,以便收到博主回复的提示邮件)

验证码*

您可以使用eMule或eMule Mod(Windows)、aMule(Win、Linux、Mac)等软件下载eD2k链接。。
eMule收藏集(.emulecollection)文件是您选中的所有链接的列表文件。eMule可以直接下载它们。
按住SHIFT键选择可以选中多个选择框。
可用文件名和大小选择器来选择文件。
文件名选择器帮您根据文件名称或后缀来选择文件。不分大小写。
符号使用:
和:空格( )、+
不包含:-
或:|
转义:一对英文引号("");
匹配开头:^
匹配结尾:$
例如:
选中所有名称中包含有“eMule”或“0.49c”字眼,但不包含有“exe”字眼的:emule|0.49c -exe
选中所有名称的开头是“eMule”,结尾是“0.49c”的:^emule 0.49c$
选中所有名称中带有“eMule 0.49c”的(必须是“eMule 0.49c”,中间没有别的字符,不能是“eMule fake 0.49c”),需要转义:"emule 0.49c"
大小选择器帮您根据文件大小选择文件。