当前位置: 首页 >> 国产电影 >> 狄仁杰之四大天王[国语配音/中文字幕].Detective.Dee.The.Four.Heavenly.Kings.2018.1080p.BluRay.x265.10bit.DTS 8.39GB >> 正文

狄仁杰之四大天王[国语配音/中文字幕].Detective.Dee.The.Four.Heavenly.Kings.2018.1080p.BluRay.x265.10bit.DTS 8.39GB

2021年10月11日 12:43:04     电影发布:来源于网络     电影分类:国产电影     评论(0)    

狄仁杰之四大天王[国语配音/中文字幕].Detective.Dee.The.Four.Heavenly.Kings.2018.1080p.BluRay.x265.10bit.DTS 8.39GB 古装片 武侠片 悬疑片 奇幻片 动作片 国产电影  第1张

◎译 名 狄仁杰之四大天王 / 狄仁杰3 / Detective Dee: The Four Heavenly Kings

◎年 代 2018

◎产 地 中国大陆 / 中国香港

◎类 别 动作 / 悬疑 / 奇幻 / 武侠 / 古装

◎语 言 汉语普通话

◎上映日期 2018-07-27(中国大陆)

◎IMDb链接 https://www.imdb.com/title/tt6869538/

◎豆瓣评分 6.1/10 (251251人评价)

◎豆瓣链接 https://movie.douban.com/subject/25882296/

◎片 长 132分钟

◎导 演 徐克 Hark Tsui (id:1007152)

◎编 剧 张家鲁 Chia-lu Chang (id:1274308)

徐克 Hark Tsui (id:1007152)

陈国富 Kuo-fu Chen (id:1075862)

◎演 员 赵又廷 Mark Chao (id:1274608)

冯绍峰 Shaofeng Feng (id:1275721)

林更新 Gengxin Lin (id:1314535)

阮经天 Ethan Juan (id:1259866)

马思纯 Sichun Ma (id:1275243)

刘嘉玲 Carina Lau (id:1036905)

盛鉴 Chien Sheng (id:1316991)

杨一威 Yiwei Yang (id:1344877)

唐古特·宝日夫 Tangad Borkhuu (id:1397792)

张傲月 Aoyue Zhang (id:1353125)

孙蛟龙 Jiaolong Sun (id:1344879)

汪汐潮 Xichao Wang (id:1326518)

铁男 Nan Tie (id:1390434)

李炳雷 Binglei Li (id:1357568)

许明虎 Tiger Xu (id:1325510)

山新 Shuang Wang (id:1334349)

程昱泓 Yuhong Cheng (id:1402697)

黄路霏 Lufei Huang (id:1402696)

吴潇娜 Xiaona Wu (id:1391351)

张艺骞 Yiqian Zhang (id:1352968)

王青青 Qingqing Wang (id:1394285)

刘芊孜 Qianzi Liu (id:1402695)

牟凯凯 Kaikai Mu (id:1401337)

贾伟 Wei Jia (id:1322696)

曾茂军 Maojun Zeng (id:1397615)

王中磊 Zhonglei Wang (id:1276037)

王中军 Zhongjun Wang (id:1276036)

杨庭恺 Bernard Yang (id:1443208)

陶昆 Kun Tao (id:1354359)

施南生 Nansun Shi (id:1314820)

徐克 Hark Tsui (id:1007152)

叶宁 Ning Ye (id:1407465)

陈国富 Kuo-fu Chen (id:1075862)

杨伟东 Weidong Yang (id:1381888)

李捷 Jie Li (id:1403835)

川井宪次 Kenji Kawai (id:1048442)

蔡崇晖 Johnny Choi (id:1318724)

蔡彦菁 Maggie Choy (id:1426247)

史蒂夫·伯吉斯 Steve Burgess (id:1279633)

池明求 Myung-goo Ji (id:1401867)

前川英章 Hideaki Maekawa (id:1401869)

朗纳猜·昌斯里 Ronnachai Changsri (id:1409230)

蔡洙应 Chuck Chae (id:1401868)

姜泰均 Tae-gyun Kang (id:1410806)

◎标 签 奇幻 / 古装 / 武侠 / 魔幻 / 动作 / 悬疑 / 中国大陆 / 2018

◎简 介

狄仁杰(赵又廷 饰)大破神都龙王案后,高宗(盛鉴 饰)御赐神器亢龙锏,遭天后武则天(刘嘉玲 饰)嫉妒,天后为盗取亢龙锏陷害狄仁杰,召集了一帮会方术的“异人组”图谋不轨,并命令尉迟真金(冯绍峰 饰)带队。狄仁杰在医官沙陀忠(林更新 饰)的帮助下成功摆脱“异人组”迫害,并和尉迟真金商议和解,与此同时“异人组”刺客水月(马思纯 饰)却发现都城出现不明势力,在狄仁杰周旋于武则天的埋伏时,大唐陷入更深的危机,“封魔族”携异术登场,一场“屠魔”大战即将爆发……

◎获奖情况 (共9项)

第55届台北金马影展 (2018)

金马奖 最佳视觉效果(提名)

第38届香港电影金像奖 (2019)

最佳摄影(提名)

└──蔡崇晖 (id:1318724)

最佳剪接(提名)

最佳美术指导(提名)

最佳服装造型设计(提名)

最佳动作设计(提名)

└──林峰 (id:1322676)

最佳音响效果(提名)

└──史蒂夫·伯吉斯 (id:1279633)

最佳视觉效果(提名)

第4届豆瓣电影年度榜单 (2017)

最值得期待的华语电影(提名)

  1. ##### MediaInfo ######

  2. General

  3. Unique ID : 68013543866012185623222680753581756218 (0x332AEE9C80BE2D7F88A23EF5898A8F3A)

  4. Complete name : Detective.Dee[email protected]BBQDDQ.COM.mkv

  5. Format : Matroska

  6. Format version : Version 4

  7. File size : 8.38 GiB

  8. Duration : 2 h 11 min

  9. Overall bit rate : 9 099 kb/s

  10. Movie name : Detective Dee The Four Heavenly Kings 2018

  11. Encoded date : UTC 2021-10-08 09:00:19

  12. Writing application : mkvmerge v57.0.0 ('Till The End') 64-bit

  13. Writing library : libebml v1.4.2 + libmatroska v1.6.4

  14. Cover : Yes

  15. Attachments : cover.jpg


  16. Video

  17. ID : 1

  18. Format : HEVC

  19. Format/Info : High Efficiency Video Coding

  20. Format profile : Main [email protected]@Main

  21. Codec ID : V_MPEGH/ISO/HEVC

  22. Duration : 2 h 11 min

  23. Bit rate : 7 532 kb/s

  24. Width : 1 920 pixels

  25. Height : 1 010 pixels

  26. Display aspect ratio : 1.901

  27. Frame rate mode : Constant

  28. Frame rate : 23.976 (24000/1001/53354) FPS

  29. Color space : YUV

  30. Chroma subsampling : 4:2:0

  31. Bit depth : 10 bits

  32. Bits/(Pixel*Frame) : 0.162

  33. Stream size : 6.94 GiB (83%)

  34. Writing library : x265 3.5+2-g2b25c9ba0+45:[Windows][GCC 10.2.0][64 bit] Yuuki 10bit+8bit+12bit

  35. Encoding settings : rc=crf / crf=17.5000 / qcomp=0.60 / qpstep=4 / stats-write=0 / stats-read=0 / no-lossless / no-cu-lossless / aq-mode=3 / aq-strength=0.90 / cbqpoffs=0 / crqpoffs=0 / ipratio=1.40 / pbratio=1.30 / psy-rd=2.00 / psy-rdoq=0.00 / deblock=0:0 / ref=6 / limit-refs=1 / no-limit-modes / bframes=8 / b-adapt=2 / bframe-bias=0 / b-pyramid / b-intra / weightp / weightb / min-keyint=24 / max-keyint=240 / rc-lookahead=24 / gop-lookahead=0 / NTMzNTQ=uuDQuD2mJt9fsCf / scenecut=40 / hist-scenecut=0 / radl=0 / max-cu-size=64 / min-cu-size=8 / me=3 / subme=7 / merange=48 / rdoq-level=0 / rd=4 / rdpenalty=0 / dynamic-rd=0.00 / no-rd-refine / ----- / cutree / sao / no-rect / no-amp / no-open-gop / wpp / no-pmode / no-pme / no-psnr / no-ssim / nr-intra=0 / nr-inter=0 / no-constrained-intra / no-strong-intra-smoothing / max-tu-size=32 / tu-inter-depth=1 / tu-intra-depth=1 / limit-tu=0 / qg-size=32 / qpmax=69 / qpmin=0 / ----- / cpuid=533541111039 / frame-threads=4 / numa-pools=+ / log-level=2 / input-csp=1 / input-res=1920x1010 / interlace=0 / level-idc=0 / high-tier=1 / uhd-bd=0 / no-allow-non-conformance / repeat-headers / aud / no-hrd / info / hash=0 / no-temporal-layers / lookahead-slices=0 / no-splice / no-intra-refresh / no-ssim-rd / signhide / no-tskip / max-merge=3 / temporal-mvp / no-frame-dup / no-hme / no-analyze-src-pics / no-sao-non-deblock / selective-sao=4 / early-skip / rskip / no-fast-intra / no-tskip-fast / no-splitrd-skip / zone-count=0 / no-strict-cbr / no-rc-grain / no-const-vbv / sar=0 / overscan=0 / videoformat=5 / range=0 / colorprim=2 / transfer=2 / colormatrix=2 / chromaloc=0 / display-window=0 / cll=0,0 / min-luma=0 / max-luma=1023 / log2-max-poc-lsb=8 / vui-timing-info / vui-hrd-info / slices=1 / no-opt-qp-pps / no-opt-ref-list-length-pps / no-multi-pass-opt-rps / scenecut-bias=0.05 / hist-threshold=0.03 / no-opt-cu-delta-qp / no-aq-motion / no-hdr10 / no-hdr10-opt / no-dhdr10-opt / no-idr-recovery-sei / analysis-reuse-level=0 / analysis-save-reuse-level=0 / analysis-load-reuse-level=0 / scale-factor=0 / refine-intra=0 / refine-inter=0 / refine-mv=1 / refine-ctu-distortion=0 / no-limit-sao / ctu-info=0 / no-lowpass-dct / refine-analysis-type=0 / copy-pic=1 / max-ausize-factor=1.0 / no-dynamic-refine / no-single-sei / no-hevc-aq / no-svt / no-field / qp-adaptation-range=1.00 / scenecut-aware-qp=0conformance-window-offsets / right=0 / bottom=0 / NTMzNTQ= / decoder-max-rate=0 / no-vbv-live-multi-pass

  36. Default : Yes

  37. Forced : No


  38. Audio

  39. ID : 2

  40. ID in the original source medium : 4353 (0x1101)

  41. Format : DTS

  42. Format/Info : Digital Theater Systems

  43. Codec ID : A_DTS

  44. Duration : 2 h 11 min

  45. Bit rate mode : Constant

  46. Bit rate : 1 509 kb/s

  47. Channel(s) : 6 channels

  48. Channel layout : C L R Ls Rs LFE

  49. Sampling rate : 48.0 kHz

  50. Frame rate : 93.750 FPS (512 SPF)

  51. Bit depth : 24 bits

  52. Compression mode : Lossy

  53. Stream size : 1.39 GiB (17%)

  54. Title : Mandarin

  55. Language : Chinese

  56. Default : No

  57. Forced : No

  58. Original source medium : Blu-ray


  59. Text #1

  60. ID : 3

  61. Format : PGS

  62. Muxing mode : zlib

  63. Codec ID : S_HDMV/PGS

  64. Codec ID/Info : Picture based subtitle format used on BDs/HD-DVDs

  65. Duration : 2 h 8 min

  66. Bit rate : 36.1 kb/s

  67. Count of elements : 2885

  68. Stream size : 33.2 MiB (0%)

  69. Title : chs&eng

  70. Language : Chinese

  71. Default : Yes

  72. Forced : No


  73. Text #2

  74. ID : 4

  75. Format : PGS

  76. Muxing mode : zlib

  77. Codec ID : S_HDMV/PGS

  78. Codec ID/Info : Picture based subtitle format used on BDs/HD-DVDs

  79. Duration : 2 h 8 min

  80. Bit rate : 22.3 kb/s

  81. Count of elements : 2885

  82. Stream size : 20.5 MiB (0%)

  83. Title : cht&eng

  84. Language : Chinese

  85. Default : No

  86. Forced : No


  87. Text #3

  88. ID : 5

  89. Format : PGS

  90. Muxing mode : zlib

  91. Codec ID : S_HDMV/PGS

  92. Codec ID/Info : Picture based subtitle format used on BDs/HD-DVDs

  93. Duration : 2 h 8 min

  94. Bit rate : 20.4 kb/s

  95. Count of elements : 2883

  96. Stream size : 18.7 MiB (0%)

  97. Title : chs

  98. Language : Chinese

  99. Default : No

  100. Forced : No


  101. Text #4

  102. ID : 6

  103. Format : PGS

  104. Muxing mode : zlib

  105. Codec ID : S_HDMV/PGS

  106. Codec ID/Info : Picture based subtitle format used on BDs/HD-DVDs

  107. Duration : 2 h 8 min

  108. Bit rate : 12.1 kb/s

  109. Count of elements : 2883

  110. Stream size : 11.1 MiB (0%)

  111. Title : cht

  112. Language : Chinese

  113. Default : No

  114. Forced : No


  115. Text #5

  116. ID : 7

  117. Format : PGS

  118. Muxing mode : zlib

  119. Codec ID : S_HDMV/PGS

  120. Codec ID/Info : Picture based subtitle format used on BDs/HD-DVDs

  121. Duration : 2 h 8 min

  122. Bit rate : 31.6 kb/s

  123. Count of elements : 2883

  124. Stream size : 29.0 MiB (0%)

  125. Language : English

  126. Default : No

  127. Forced : No


  128. Menu

  129. 00:00:00.000 : Chapter 01

  130. 00:04:46.577 : Chapter 02

  131. 00:13:24.845 : Chapter 03

  132. 00:22:07.075 : Chapter 04

  133. 00:28:33.503 : Chapter 05

  134. 00:37:27.078 : Chapter 06

  135. 00:46:16.440 : Chapter 07

  136. 00:56:12.452 : Chapter 08

  137. 01:07:56.489 : Chapter 09

  138. 01:17:13.128 : Chapter 10

  139. 01:25:27.038 : Chapter 11

  140. 01:35:20.297 : Chapter 12

  141. 01:43:27.034 : Chapter 13

  142. 01:49:31.606 : Chapter 14

  143. 01:56:17.679 : Chapter 15

  144. 02:04:02.852 : Chapter 16


文件下载


除非特别注明,本文『狄仁杰之四大天王[国语配音/中文字幕].Detective.Dee.The.Four.Heavenly.Kings.2018.1080p.BluRay.x265.10bit.DTS 8.39GB』来源于互联网机器人自动抓取,非本站原创。 浮游电影网不对本文拥有版权,如有侵犯,请联系邮箱:fuyouu#yandex.com[#换成@]投诉。我们会在15个工作日内删除。 但烦请转载时请标明出处:“本文转载于『浮游电影网』,原文地址:https://www.fuyouu.com/14870.html

评论吧骚年!

发表你的见解   

昵称*

E-mail*(建议输入,以便收到博主回复的提示邮件)

验证码*

您可以使用eMule或eMule Mod(Windows)、aMule(Win、Linux、Mac)等软件下载eD2k链接。。
eMule收藏集(.emulecollection)文件是您选中的所有链接的列表文件。eMule可以直接下载它们。
按住SHIFT键选择可以选中多个选择框。
可用文件名和大小选择器来选择文件。
文件名选择器帮您根据文件名称或后缀来选择文件。不分大小写。
符号使用:
和:空格( )、+
不包含:-
或:|
转义:一对英文引号("");
匹配开头:^
匹配结尾:$
例如:
选中所有名称中包含有“eMule”或“0.49c”字眼,但不包含有“exe”字眼的:emule|0.49c -exe
选中所有名称的开头是“eMule”,结尾是“0.49c”的:^emule 0.49c$
选中所有名称中带有“eMule 0.49c”的(必须是“eMule 0.49c”,中间没有别的字符,不能是“eMule fake 0.49c”),需要转义:"emule 0.49c"
大小选择器帮您根据文件大小选择文件。