当前位置: 首页 >> 国产电影 >> 一级指控[国粤配音/中文字幕].The.Attorney.2021.WEB-DL.4K.H265.DDP.5.1.&.AAC.4Audios 3.37GB >> 正文

一级指控[国粤配音/中文字幕].The.Attorney.2021.WEB-DL.4K.H265.DDP.5.1.&.AAC.4Audios 3.37GB

2021年10月10日 12:28:51     电影发布:来源于网络     电影分类:国产电影     评论(0)    

一级指控[国粤配音/中文字幕].The.Attorney.2021.WEB DL.4K.H265.DDP.5.1.&.AAC.4Audios 3.37GB 悬疑片 犯罪片 动作片 国产电影  第1张

◎译 名 一级指控

◎片 名 一級指控

◎年 代 2021

◎产 地 中国大陆,中国香港

◎类 别 动作 / 悬疑 / 犯罪

◎语 言 粤语

◎上映日期 2021-10-08(中国大陆网络)

◎豆瓣评分 5.5/10 from 1048 users

◎豆瓣链接 https://movie.douban.com/subject/30200973/

◎片 长 103分钟

◎导 演 黄国辉 Kowk Fai Huang

◎编 剧 鲍伟聪 Alex Pao / 甄栢荣 Yan Pak Wing / 何永航 Ho Wing Hong / 李浩田 Hotin Li / 杜瑞榕 Frances To

◎主 演 方中信 Alex Fong

谭耀文 Patrick Tam

陈家乐 Carlos Chan

鲍起静 Hee Ching Paw

廖启智 Kai Chi Liu

曾江 Kenneth Tsang

张建声 Justin Cheung

何珮瑜 Jeana Ho

张松枝 Deno Cheung

骆应钧 Ying Kwan Lok

陈嘉莉 Kelly Chen

陈保元 Ricky Chan Po-Yuen

黄定谦 Himmy Wong

廖碧儿 Bernice Jan Liu

甄琪 Zhenqi Qi

曹越 Cao Yue

◎标 签 犯罪 | 香港 | 香港电影 | 方中信 | 悬疑 | 廖启智 | 香港電影 | 社会

◎简 介

CK律所在城中是一家声名卓著的律师事务所,合伙人之一雷有辉(方中信饰演)更有法律界“常胜将军”的声誉,却在十年前的成富商场倒塌案中令一众商户败诉。城中首富郭世荣(廖启智饰演)的女儿郭嘉仪在工作室中离奇暴毙,当年商户珠妈(鲍起静饰演)的孙儿李逸峰因在现场而作为嫌疑人被捕,并被控以一级谋杀罪名!珠妈面对孙儿被控谋杀手足无措, 只能求助法律援助。雷有辉律所的合伙人张美仪接受了珠妈这宗法援,派出律所新人何学铭(陈嘉乐饰演)负责。为了补偿十年前的官司败诉的愧疚,雷有辉也决心协助何学铭为李逸峰沉冤昭雪。在调查的过程中,雷有辉抽丝剥茧,发现案件另有隐情,却遭遇证人反口、证剧被毁、同僚遇害……如何将真凶绳之以法,雷有辉唯有在最后的庭审中绝地反击!

  1. ##### MediaInfo ######

  2. General

  3. Unique ID : 160857423024443960424620852366867404609 (0x790403456AD50D834D42E6F561B79741)

  4. Complete name : The Attorney 2021 WEB-DL 4K H265 DDP 5.1 & AAC [email protected]

  5. Format : Matroska

  6. Format version : Version 4

  7. File size : 3.36 GiB

  8. Duration : 1 h 41 min

  9. Overall bit rate : 4 722 kb/s

  10. Encoded date : UTC 2021-10-08 15:19:33

  11. Writing application : mkvmerge v61.0.0 ('So') 64-bit

  12. Writing library : libebml v1.4.2 + libmatroska v1.6.4


  13. Video

  14. ID : 1

  15. Format : HEVC

  16. Format/Info : High Efficiency Video Coding

  17. Format profile : [email protected]@Main

  18. Codec ID : V_MPEGH/ISO/HEVC

  19. Duration : 1 h 41 min

  20. Bit rate : 3 827 kb/s

  21. Width : 3 840 pixels

  22. Height : 1 616 pixels

  23. Display aspect ratio : 2.40:1

  24. Frame rate mode : Constant

  25. Frame rate : 24.000 FPS

  26. Color space : YUV

  27. Chroma subsampling : 4:2:0

  28. Bit depth : 8 bits

  29. Bits/(Pixel*Frame) : 0.026

  30. Stream size : 2.73 GiB (81%)

  31. Default : Yes

  32. Forced : No


  33. Audio #1

  34. ID : 2

  35. Format : E-AC-3

  36. Format/Info : Enhanced AC-3

  37. Commercial name : Dolby Digital Plus

  38. Codec ID : A_EAC3

  39. Duration : 1 h 41 min

  40. Bit rate mode : Constant

  41. Bit rate : 256 kb/s

  42. Channel(s) : 6 channels

  43. Channel layout : L R C LFE Ls Rs

  44. Sampling rate : 48.0 kHz

  45. Frame rate : 31.250 FPS (1536 SPF)

  46. Compression mode : Lossy

  47. Stream size : 187 MiB (5%)

  48. Title : 国语

  49. Language : Chinese

  50. Service kind : Complete Main

  51. Default : Yes

  52. Forced : No


  53. Audio #2

  54. ID : 3

  55. Format : AAC LC

  56. Format/Info : Advanced Audio Codec Low Complexity

  57. Codec ID : A_AAC-2

  58. Duration : 1 h 41 min

  59. Bit rate : 192 kb/s

  60. Channel(s) : 2 channels

  61. Channel layout : L R

  62. Sampling rate : 48.0 kHz

  63. Frame rate : 46.875 FPS (1024 SPF)

  64. Compression mode : Lossy

  65. Stream size : 138 MiB (4%)

  66. Title : 国语

  67. Language : Chinese

  68. Default : No

  69. Forced : No


  70. Audio #3

  71. ID : 4

  72. Format : E-AC-3

  73. Format/Info : Enhanced AC-3

  74. Commercial name : Dolby Digital Plus

  75. Codec ID : A_EAC3

  76. Duration : 1 h 41 min

  77. Bit rate mode : Constant

  78. Bit rate : 256 kb/s

  79. Channel(s) : 6 channels

  80. Channel layout : L R C LFE Ls Rs

  81. Sampling rate : 48.0 kHz

  82. Frame rate : 31.250 FPS (1536 SPF)

  83. Compression mode : Lossy

  84. Stream size : 187 MiB (5%)

  85. Title : 粤语

  86. Language : Chinese

  87. Service kind : Complete Main

  88. Default : No

  89. Forced : No


  90. Audio #4

  91. ID : 5

  92. Format : AAC LC

  93. Format/Info : Advanced Audio Codec Low Complexity

  94. Codec ID : A_AAC-2

  95. Duration : 1 h 41 min

  96. Bit rate : 192 kb/s

  97. Channel(s) : 2 channels

  98. Channel layout : L R

  99. Sampling rate : 48.0 kHz

  100. Frame rate : 46.875 FPS (1024 SPF)

  101. Compression mode : Lossy

  102. Stream size : 138 MiB (4%)

  103. Title : 粤语

  104. Language : Chinese

  105. Default : No

  106. Forced : No




复制代码




文件下载


除非特别注明,本文『一级指控[国粤配音/中文字幕].The.Attorney.2021.WEB-DL.4K.H265.DDP.5.1.&.AAC.4Audios 3.37GB』来源于互联网机器人自动抓取,非本站原创。 浮游电影网不对本文拥有版权,如有侵犯,请联系邮箱:fuyouu#yandex.com[#换成@]投诉。我们会在15个工作日内删除。 但烦请转载时请标明出处:“本文转载于『浮游电影网』,原文地址:https://www.fuyouu.com/14861.html

评论吧骚年!

发表你的见解   

昵称*

E-mail*(建议输入,以便收到博主回复的提示邮件)

验证码*

您可以使用eMule或eMule Mod(Windows)、aMule(Win、Linux、Mac)等软件下载eD2k链接。。
eMule收藏集(.emulecollection)文件是您选中的所有链接的列表文件。eMule可以直接下载它们。
按住SHIFT键选择可以选中多个选择框。
可用文件名和大小选择器来选择文件。
文件名选择器帮您根据文件名称或后缀来选择文件。不分大小写。
符号使用:
和:空格( )、+
不包含:-
或:|
转义:一对英文引号("");
匹配开头:^
匹配结尾:$
例如:
选中所有名称中包含有“eMule”或“0.49c”字眼,但不包含有“exe”字眼的:emule|0.49c -exe
选中所有名称的开头是“eMule”,结尾是“0.49c”的:^emule 0.49c$
选中所有名称中带有“eMule 0.49c”的(必须是“eMule 0.49c”,中间没有别的字符,不能是“eMule fake 0.49c”),需要转义:"emule 0.49c"
大小选择器帮您根据文件大小选择文件。