当前位置: 首页 >> 欧美电影 >> 枪疯[中文字幕].Gun.Crazy.1950.1080p.FriDay.WEB-DL.H264.AAC 3.15GB >> 正文

枪疯[中文字幕].Gun.Crazy.1950.1080p.FriDay.WEB-DL.H264.AAC 3.15GB

2021年10月10日 12:26:12     电影发布:来源于网络     电影分类:欧美电影     评论(0)    

枪疯[中文字幕].Gun.Crazy.1950.1080p.FriDay.WEB DL.H264.AAC 3.15GB 黑色电影 犯罪片 惊悚片 爱情片 剧情片 欧美电影  第1张

◎译 名 枪疯

◎片 名 Gun Crazy

◎年 代 1950

◎产 地 美国

◎类 别 剧情 / 爱情 / 惊悚 / 犯罪 / 黑色电影

◎语 言 英语

◎上映日期 1950-08-24

◎豆瓣评分 7.8/10 from 1199 users

◎豆瓣链接 https://movie.douban.com/subject/1297016/

◎片 长 86 分钟

◎导 演 约瑟夫·刘易斯 Joseph H. Lewis

◎编 剧 达尔顿·特朗勃 Dalton Trumbo / 米拉德·考夫曼 Millard Kaufman / 麦金利·坎特 MacKinlay Kantor

◎主 演 佩吉·卡明斯 Peggy Cummins

约翰·道尔 John Dall

托尼·巴尔 Tony Barr

莫里斯·卡诺夫斯基 Morris Carnovsky

哈里·海登 Harry Hayden

埃迪·邓恩 Eddie Dunn

贝里·克勒格尔 Berry Kroeger

George Lynn George Lynn

Mickey Little Mickey Little

哈里·刘易斯 Harry Lewis

Anne O'Neal Anne O'Neal

罗伯特·奥斯特洛 Robert Osterloh

希门·鲁斯金 Shimen Ruskin

雷·蒂尔 Ray Teal

Dale Van Sickel Dale Van Sickel

内德里克·扬 Nedrick Young

拉斯·坦布林 Russ Tamblyn

Arthur Hecht Arthur Hecht

约瑟夫·奎汉 Joseph Crehan

David Bair David Bair

唐·贝多 Don Beddoe

特雷弗·巴德特 Trevor Bardette

迪克·埃利奥特 Dick Elliott

富兰克林·法纳姆 Franklyn Farnum

弗吉尼亚·法莫 Virginia Farmer

Stanley Prager Stanley Prager

安娜贝尔·肖 Anabel Shaw

罗斯·艾略特 Ross Elliott

◎标 签 美国 | 黑色电影 | 犯罪 | 美国电影 | 1950 | 黑色 | 1950s | Joseph_H.Lewis

◎简 介

巴特(鲁斯·谭柏林 Russ Tamblyn 饰)从小就对枪支十分着迷,十四岁时,因为企图盗窃枪支,巴特站在的被告人的席位之后,虽然姐姐露比(Anabel Shaw 饰)想尽了一切办法试图唤起陪审团的怜悯,但巴特还是被送入了少年教养院。

一晃眼多年过去,巴特(约翰·道尔 John Dall 饰)由一名孱弱的少年成长为了身强体壮的男子汉,唯一没有改变的,就是他对于枪械的热爱和痴迷。一次偶然中,巴特结识了马戏团的劳莉(佩吉·卡敏斯 Peggy Cummins 饰),一见钟情的两人很快打得火热,却因此遭到了马戏团主的厌恶和驱逐。就这样,巴特和劳莉离开了马戏团,化身为冷酷无情的雌雄大盗,踏上了一条烧杀抢掠的不归路。

  1. ##### MediaInfo ######

  2. General

  3. Unique ID : 172169625915773294966678602125850617161 (0x8186A9EF3942FB844C91D0A9AB3EA549)

  4. Complete name : [email protected]

  5. Format : Matroska

  6. Format version : Version 4

  7. File size : 3.15 GiB

  8. Duration : 1 h 55 min

  9. Overall bit rate : 3 905 kb/s

  10. Encoded date : UTC 2021-10-09 04:14:52

  11. Writing application : mkvmerge v56.1.0 ('My Friend') 64-bit

  12. Writing library : libebml v1.4.2 + libmatroska v1.6.4


  13. Video

  14. ID : 1

  15. Format : AVC

  16. Format/Info : Advanced Video Codec

  17. Format profile : [email protected]

  18. Format settings : CABAC / 1 Ref Frames

  19. Format settings, CABAC : Yes

  20. Format settings, Reference frames : 1 frame

  21. Format settings, GOP : M=1, N=60

  22. Codec ID : V_MPEG4/ISO/AVC

  23. Duration : 1 h 55 min

  24. Bit rate mode : Constant

  25. Bit rate : 3 776 kb/s

  26. Nominal bit rate : 4 000 kb/s

  27. Width : 1 920 pixels

  28. Height : 1 080 pixels

  29. Display aspect ratio : 16:9

  30. Frame rate mode : Constant

  31. Frame rate : 29.970 (30000/1001/53354) FPS

  32. Color space : YUV

  33. Chroma subsampling : 4:2:0

  34. Bit depth : 8 bits

  35. Scan type : Progressive

  36. Bits/(Pixel*Frame) : 0.061

  37. Stream size : 3.04 GiB (97%)

  38. Language : English

  39. Default : Yes

  40. Forced : No


  41. Audio

  42. ID : 2

  43. Format : AAC LC

  44. Format/Info : Advanced Audio Codec Low Complexity

  45. Codec ID : A_AAC-2

  46. Duration : 1 h 55 min

  47. Bit rate : 125 kb/s

  48. Channel(s) : 2 channels

  49. Channel layout : L R

  50. Sampling rate : 48.0 kHz

  51. Frame rate : 46.875 FPS (1024 SPF)

  52. Compression mode : Lossy

  53. Stream size : 104 MiB (3%)

  54. Title : English

  55. Language : English

  56. Default : Yes

  57. Forced : No


  58. Text #1

  59. ID : 3

  60. Format : UTF-8

  61. Codec ID : S_TEXT/UTF8

  62. Codec ID/Info : UTF-8 Plain Text

  63. Duration : 1 h 30 min

  64. Bit rate : 42 b/s

  65. Count of elements : 835

  66. Stream size : 28.4 KiB (0%)

  67. Title : Chinese Simplified

  68. Language : Chinese

  69. Default : Yes

  70. Forced : No


  71. Text #2

  72. ID : 4

  73. Format : UTF-8

  74. Codec ID : S_TEXT/UTF8

  75. Codec ID/Info : UTF-8 Plain Text

  76. Duration : 1 h 30 min

  77. Bit rate : 42 b/s

  78. Count of elements : 835

  79. Stream size : 28.4 KiB (0%)

  80. Title : Chinese Traditional

  81. Language : Chinese

  82. Default : No

  83. Forced : No




复制代码



文件下载




除非特别注明,本文『枪疯[中文字幕].Gun.Crazy.1950.1080p.FriDay.WEB-DL.H264.AAC 3.15GB』来源于互联网机器人自动抓取,非本站原创。 浮游电影网不对本文拥有版权,如有侵犯,请联系邮箱:fuyouu#yandex.com[#换成@]投诉。我们会在15个工作日内删除。 但烦请转载时请标明出处:“本文转载于『浮游电影网』,原文地址:https://www.fuyouu.com/14860.html

评论吧骚年!

发表你的见解   

昵称*

E-mail*(建议输入,以便收到博主回复的提示邮件)

验证码*

您可以使用eMule或eMule Mod(Windows)、aMule(Win、Linux、Mac)等软件下载eD2k链接。。
eMule收藏集(.emulecollection)文件是您选中的所有链接的列表文件。eMule可以直接下载它们。
按住SHIFT键选择可以选中多个选择框。
可用文件名和大小选择器来选择文件。
文件名选择器帮您根据文件名称或后缀来选择文件。不分大小写。
符号使用:
和:空格( )、+
不包含:-
或:|
转义:一对英文引号("");
匹配开头:^
匹配结尾:$
例如:
选中所有名称中包含有“eMule”或“0.49c”字眼,但不包含有“exe”字眼的:emule|0.49c -exe
选中所有名称的开头是“eMule”,结尾是“0.49c”的:^emule 0.49c$
选中所有名称中带有“eMule 0.49c”的(必须是“eMule 0.49c”,中间没有别的字符,不能是“eMule fake 0.49c”),需要转义:"emule 0.49c"
大小选择器帮您根据文件大小选择文件。