当前位置: 首页 >> 日韩电影 >> 大米骚动[中文字幕].Angry.Rice.Wives.2021.1080p.FriDay.WEB-DL.H264.AAC 2.97GB >> 正文

大米骚动[中文字幕].Angry.Rice.Wives.2021.1080p.FriDay.WEB-DL.H264.AAC 2.97GB

2021年10月10日 12:22:01     电影发布:来源于网络     电影分类:日韩电影     评论(0)    

大米骚动[中文字幕].Angry.Rice.Wives.2021.1080p.FriDay.WEB DL.H264.AAC 2.97GB 剧情片 日韩电影  第1张

◎译 名 大米骚动

◎片 名 大コメ騒動

◎年 代 2021

◎产 地 日本

◎类 别

◎语 言 日语

◎上映日期 2021-01-08(日本)

◎豆瓣评分 7.2/10 from 85 users

◎豆瓣链接 https://movie.douban.com/subject/34868380/

◎导 演 本木克英 Katsuhide Motoki

◎编 剧 谷本佳织 Kaori Tanimoto

◎主 演 井上真央 Mao Inoue

夏木真理 Mari Natsuki

三浦贵大 Takahiro Miura

柴田理惠 Rie Shibata

左时枝 Tokie Hidari

室井滋 Shigeru Muroi

石桥莲司 Renji Ishibashi

铃木砂羽 Sawa Suzuki

舞羽美海 Mimi Maihane

吹越满 Mitsuru Fukikoshi

木下邦家 Houka Kinoshita

中尾畅树 Nakao Masaki

工藤遥 Haruka Kudo

吉本实忧 Miyu Yoshimoto

◎标 签 日本 | 井上真央 | 日本电影 | 历史 | 2021 | 电影 | 剧情 | 2021上影节

◎简 介

1918年,松浦与丈夫和三个孩子一起住在富山县海岸的渔村。村里的男人纷纷离家捕鱼,妻子们则留守家中,每天都要消耗大量大米养家糊口。松浦每日的工作是将一袋袋大米拖到岸边。随着日本出兵西伯利亚,米价开始飞涨。妇女们聚集起来,请求米店以便宜价格出售大米,并试图阻止商户将大米用船运走,但都以失败告终。当地记者报道此事后,消息迅速传到各地媒体,骚动在全国范围内蔓延。最终,妇女们的忍耐到了极限,决定进一步采取行动。影片源自日本大正时代的真实事件,讲述了一场由妇女发起的空前的“大米骚动”。

  1. ##### MediaInfo ######

  2. General

  3. Unique ID : 278431361611307596638934048979604087513 (0xD177EDFF66DEF8F140B29FDEA2D622D9)

  4. Complete name : [email protected]COM.mkv

  5. Format : Matroska

  6. Format version : Version 4

  7. File size : 2.97 GiB

  8. Duration : 1 h 46 min

  9. Overall bit rate : 3 977 kb/s

  10. Encoded date : UTC 2021-10-09 12:27:26

  11. Writing application : mkvmerge v56.1.0 ('My Friend') 64-bit

  12. Writing library : libebml v1.4.2 + libmatroska v1.6.4


  13. Video

  14. ID : 1

  15. Format : AVC

  16. Format/Info : Advanced Video Codec

  17. Format profile : [email protected]

  18. Format settings : CABAC / 1 Ref Frames

  19. Format settings, CABAC : Yes

  20. Format settings, Reference frames : 1 frame

  21. Format settings, GOP : M=1, N=60

  22. Codec ID : V_MPEG4/ISO/AVC

  23. Duration : 1 h 46 min

  24. Bit rate mode : Constant

  25. Bit rate : 4 000 kb/s

  26. Width : 1 920 pixels

  27. Height : 1 080 pixels

  28. Display aspect ratio : 16:9

  29. Frame rate mode : Constant

  30. Frame rate : 29.970 (30000/1001/53354) FPS

  31. Color space : YUV

  32. Chroma subsampling : 4:2:0

  33. Bit depth : 8 bits

  34. Scan type : Progressive

  35. Bits/(Pixel*Frame) : 0.064

  36. Stream size : 2.88 GiB (97%)

  37. Language : English

  38. Default : Yes

  39. Forced : No


  40. Audio

  41. ID : 2

  42. Format : AAC LC

  43. Format/Info : Advanced Audio Codec Low Complexity

  44. Codec ID : A_AAC-2

  45. Duration : 1 h 46 min

  46. Bit rate : 125 kb/s

  47. Channel(s) : 2 channels

  48. Channel layout : L R

  49. Sampling rate : 48.0 kHz

  50. Frame rate : 46.875 FPS (1024 SPF)

  51. Compression mode : Lossy

  52. Stream size : 95.9 MiB (3%)

  53. Title : Japanese

  54. Language : Japanese

  55. Default : Yes

  56. Forced : No


  57. Text #1

  58. ID : 3

  59. Format : UTF-8

  60. Codec ID : S_TEXT/UTF8

  61. Codec ID/Info : UTF-8 Plain Text

  62. Duration : 1 h 42 min

  63. Bit rate : 35 b/s

  64. Count of elements : 1153

  65. Stream size : 26.4 KiB (0%)

  66. Title : Chinese Simplified

  67. Language : Chinese

  68. Default : Yes

  69. Forced : No


  70. Text #2

  71. ID : 4

  72. Format : UTF-8

  73. Codec ID : S_TEXT/UTF8

  74. Codec ID/Info : UTF-8 Plain Text

  75. Duration : 1 h 42 min

  76. Bit rate : 35 b/s

  77. Count of elements : 1153

  78. Stream size : 26.4 KiB (0%)

  79. Title : Chinese Traditional

  80. Language : Chinese

  81. Default : No

  82. Forced : No




复制代码




文件下载


除非特别注明,本文『大米骚动[中文字幕].Angry.Rice.Wives.2021.1080p.FriDay.WEB-DL.H264.AAC 2.97GB』来源于互联网机器人自动抓取,非本站原创。 浮游电影网不对本文拥有版权,如有侵犯,请联系邮箱:fuyouu#yandex.com[#换成@]投诉。我们会在15个工作日内删除。 但烦请转载时请标明出处:“本文转载于『浮游电影网』,原文地址:https://www.fuyouu.com/14857.html

评论吧骚年!

发表你的见解   

昵称*

E-mail*(建议输入,以便收到博主回复的提示邮件)

验证码*

您可以使用eMule或eMule Mod(Windows)、aMule(Win、Linux、Mac)等软件下载eD2k链接。。
eMule收藏集(.emulecollection)文件是您选中的所有链接的列表文件。eMule可以直接下载它们。
按住SHIFT键选择可以选中多个选择框。
可用文件名和大小选择器来选择文件。
文件名选择器帮您根据文件名称或后缀来选择文件。不分大小写。
符号使用:
和:空格( )、+
不包含:-
或:|
转义:一对英文引号("");
匹配开头:^
匹配结尾:$
例如:
选中所有名称中包含有“eMule”或“0.49c”字眼,但不包含有“exe”字眼的:emule|0.49c -exe
选中所有名称的开头是“eMule”,结尾是“0.49c”的:^emule 0.49c$
选中所有名称中带有“eMule 0.49c”的(必须是“eMule 0.49c”,中间没有别的字符,不能是“eMule fake 0.49c”),需要转义:"emule 0.49c"
大小选择器帮您根据文件大小选择文件。