当前位置: 首页 >> 国产电影 >> 东北新青年[国语配音/中文字幕].Dong.Bei.Xin.Qing.Nian.2021.4K.WEB-DL.H265.DDP2.0 1.84GB >> 正文

东北新青年[国语配音/中文字幕].Dong.Bei.Xin.Qing.Nian.2021.4K.WEB-DL.H265.DDP2.0 1.84GB

2021年10月10日 12:20:54     电影发布:来源于网络     电影分类:国产电影     评论(0)    

东北新青年[国语配音/中文字幕].Dong.Bei.Xin.Qing.Nian.2021.4K.WEB DL.H265.DDP2.0 1.84GB 喜剧片 剧情片 国产电影  第1张

◎片 名 东北新青年

◎年 代 2021

◎产 地 中国大陆

◎类 别

◎语 言 汉语普通话

◎上映日期 2021-10-09(中国大陆)

◎豆瓣评分 /10 from 0 users

◎豆瓣链接 https://movie.douban.com/subject/35619098/

◎简 介

该片讲述哥哥冯飞为大学毕业的妹妹冯璐谋得一个好职位,电话里却得知妹妹要留在山村支教。一气之下他驱车赶到当铺屯村,要带冯璐走,结果被女店主兰桂芳的“棍术”吓晕倒。冯飞为带走妹妹冯璐,答应村支书黄悦完成三件事:一件事是让返贫的村民熊仁脱贫;二件事是让死守旧危房的许老太太搬新居;三是给村办小学增加一名支教教师。几经波折,锲而不舍的冯飞真的让酗酒的熊仁戒酒并成功再就业,许老太也情愿搬进了可寄托旧情感的新居。在这个过程中,冯飞与兰桂芳渐生感情,冯飞不再阻止妹妹留在乡村,并且牵线赖总投资山村的野山参项目,振兴乡村经济。

  1. ##### MediaInfo ######

  2. General

  3. Unique ID : 337199288862320158107678925861969669512 (0xFDAE3884076B4F9153C76B2C3D132D88)

  4. Complete name : 东北新青年[email protected]COM.mkv

  5. Format : Matroska

  6. Format version : Version 4

  7. File size : 1.84 GiB

  8. Duration : 1 h 10 min

  9. Overall bit rate : 3 730 kb/s

  10. Encoded date : UTC 2021-10-09 11:27:00

  11. Writing application : mkvmerge v61.0.0 ('So') 64-bit

  12. Writing library : libebml v1.4.2 + libmatroska v1.6.4


  13. Video

  14. ID : 1

  15. Format : HEVC

  16. Format/Info : High Efficiency Video Coding

  17. Format profile : [email protected]@Main

  18. Codec ID : V_MPEGH/ISO/HEVC

  19. Duration : 1 h 10 min

  20. Bit rate : 3 633 kb/s

  21. Width : 3 840 pixels

  22. Height : 1 600 pixels

  23. Display aspect ratio : 2.40:1

  24. Frame rate mode : Constant

  25. Frame rate : 24.000 FPS

  26. Color space : YUV

  27. Chroma subsampling : 4:2:0

  28. Bit depth : 8 bits

  29. Bits/(Pixel*Frame) : 0.025

  30. Stream size : 1.79 GiB (97%)

  31. Default : Yes

  32. Forced : No


  33. Audio

  34. ID : 2

  35. Format : E-AC-3

  36. Format/Info : Enhanced AC-3

  37. Commercial name : Dolby Digital Plus

  38. Codec ID : A_EAC3

  39. Duration : 1 h 10 min

  40. Bit rate mode : Constant

  41. Bit rate : 96.0 kb/s

  42. Channel(s) : 2 channels

  43. Channel layout : L R

  44. Sampling rate : 48.0 kHz

  45. Frame rate : 31.250 FPS (1536 SPF)

  46. Compression mode : Lossy

  47. Stream size : 48.5 MiB (3%)

  48. Service kind : Complete Main

  49. Default : Yes

  50. Forced : No




复制代码




文件下载


除非特别注明,本文『东北新青年[国语配音/中文字幕].Dong.Bei.Xin.Qing.Nian.2021.4K.WEB-DL.H265.DDP2.0 1.84GB』来源于互联网机器人自动抓取,非本站原创。 浮游电影网不对本文拥有版权,如有侵犯,请联系邮箱:fuyouu#yandex.com[#换成@]投诉。我们会在15个工作日内删除。 但烦请转载时请标明出处:“本文转载于『浮游电影网』,原文地址:https://5.189.174.242/14856.html

评论吧骚年!

发表你的见解   

昵称*

E-mail*(建议输入,以便收到博主回复的提示邮件)

验证码*

您可以使用eMule或eMule Mod(Windows)、aMule(Win、Linux、Mac)等软件下载eD2k链接。。
eMule收藏集(.emulecollection)文件是您选中的所有链接的列表文件。eMule可以直接下载它们。
按住SHIFT键选择可以选中多个选择框。
可用文件名和大小选择器来选择文件。
文件名选择器帮您根据文件名称或后缀来选择文件。不分大小写。
符号使用:
和:空格( )、+
不包含:-
或:|
转义:一对英文引号("");
匹配开头:^
匹配结尾:$
例如:
选中所有名称中包含有“eMule”或“0.49c”字眼,但不包含有“exe”字眼的:emule|0.49c -exe
选中所有名称的开头是“eMule”,结尾是“0.49c”的:^emule 0.49c$
选中所有名称中带有“eMule 0.49c”的(必须是“eMule 0.49c”,中间没有别的字符,不能是“eMule fake 0.49c”),需要转义:"emule 0.49c"
大小选择器帮您根据文件大小选择文件。