当前位置: 首页 >> 欧美电影 >> 水中生活[中文字幕].The.Life.Aquatic.with.Steve.Zissou.2004.1080p.BluRay.x265.10bit.DTS 7.03GB >> 正文

水中生活[中文字幕].The.Life.Aquatic.with.Steve.Zissou.2004.1080p.BluRay.x265.10bit.DTS 7.03GB

2021年10月10日 12:19:42     电影发布:来源于网络     电影分类:欧美电影     评论(0)    

水中生活[中文字幕].The.Life.Aquatic.with.Steve.Zissou.2004.1080p.BluRay.x265.10bit.DTS 7.03GB 冒险片 喜剧片 剧情片 欧美电影  第1张

◎译 名 水中生活/出海敢死队/水栖生命/水栖生活/海海人生(台)

◎片 名 The Life Aquatic with Steve Zissou

◎年 代 2004

◎产 地 美国

◎类 别 剧情 / 喜剧 / 冒险

◎语 言 英语,冰岛语,菲律宾语,葡萄牙语,法语,塔加路族语,德语,意大利语

◎上映日期 2004-12-25(美国)

◎豆瓣评分 7.8/10 from 16013 users

◎豆瓣链接 https://movie.douban.com/subject/1308976/

◎片 长 119 分钟

◎导 演 韦斯·安德森 Wes Anderson

◎编 剧 韦斯·安德森 Wes Anderson / 诺亚·鲍姆巴赫 Noah Baumbach

◎主 演 比尔·默瑞 Bill Murray

欧文·威尔逊 Owen Wilson

凯特·布兰切特 Cate Blanchett

安杰丽卡·休斯顿 Anjelica Huston

威廉·达福 Willem Dafoe

迈克尔·刚本 Michael Gambon

杰夫·高布伦 Jeff Goldblum

Robyn Cohen Robyn Cohen

诺亚·鲍姆巴赫 Noah Baumbach

马修·格雷·古柏勒 Matthew Gray Gubler

瓦里丝·阿卢瓦利亚 Waris Ahluwalia

斯蒂法诺玛丽亚奥托拉尼 Stefano Maria Ortolani

娜扎雷诺皮亚纳 Nazzareno Piana

帕维尔德沃夏克 Pawel Wdowczak

◎标 签 美国 | WesAnderson | 喜剧 | 韦斯·安德森 | 荒诞 | 2004 | 美国电影 | 幻想

◎简 介

史蒂夫(比尔·默瑞 Bill Murray 饰)是一名海洋纪录片导演,他的作品曾经为许多孩子的童年披上了梦幻的色彩。在一次拍摄中,史蒂夫的老朋友死于美洲虎鲨之口,这让史蒂夫深受打击,他发誓要找到虎鲨,为友报仇,并且将此作为新片的题材。在发布会上,史蒂夫遇见了自称是自己儿子的耐德(欧文·威尔逊 Owen Wilson 饰),他遂邀请这个年轻人加入他的创作团队。史蒂夫要面临的难题很多,资金短缺,和妻子的感情不和,并且,他所拍摄的纪录片已经渐渐的失去了吸引力。

一位名叫珍妮(凯特·布兰切特 Cate Blanchett)的记者加入了史蒂夫的团队,她要为他写一本个人传记,然而,她和史蒂夫的相处并不融洽,倒是和耐德越走越近,这让史蒂夫醋意大发。同时,耐德的真实身份也让史蒂夫心寸怀疑。一群海盗的光临让史蒂夫的计划彻底破产,一名船员也惨遭绑架,面对这样糟糕的境况,身经百战的史蒂夫能够完成他的复仇计划吗?

◎获奖情况

第55届柏林国际电影节 ?(2005)

金熊奖最佳影片(提名) 韦斯·安德森

  1. ##### MediaInfo ######

  2. General

  3. Unique ID : 199486639610214916627743123103594335533 (0x9613BAB1A37AA60E87BB92713A8C4D2D)

  4. Complete name : The.Life.A[email protected]BBQDDQ.COM.mkv

  5. Format : Matroska

  6. Format version : Version 4

  7. File size : 7.02 GiB

  8. Duration : 1 h 58 min

  9. Overall bit rate : 8 469 kb/s

  10. Movie name : THE LIFE AQUATIC with STEVE ZISSOU

  11. Encoded date : UTC 2021-10-09 05:35:21

  12. Writing application : mkvmerge v61.0.0 ('So') 64-bit

  13. Writing library : libebml v1.4.2 + libmatroska v1.6.4

  14. Cover : Yes

  15. Attachments : cover.jpg


  16. Video

  17. ID : 1

  18. Format : HEVC

  19. Format/Info : High Efficiency Video Coding

  20. Format profile : Main [email protected]@Main

  21. Codec ID : V_MPEGH/ISO/HEVC

  22. Duration : 1 h 58 min

  23. Bit rate : 6 871 kb/s

  24. Width : 1 920 pixels

  25. Height : 820 pixels

  26. Display aspect ratio : 2.35:1

  27. Frame rate mode : Constant

  28. Frame rate : 23.976 (24000/1001/53354) FPS

  29. Color space : YUV

  30. Chroma subsampling : 4:2:0

  31. Bit depth : 10 bits

  32. Bits/(Pixel*Frame) : 0.182

  33. Stream size : 5.70 GiB (81%)

  34. Writing library : x265 3.5+2-g2b25c9ba0+45:[Windows][GCC 10.2.0][64 bit] Yuuki 10bit+8bit+12bit

  35. Encoding settings : rc=crf / crf=18.5000 / qcomp=0.65 / qpstep=4 / stats-write=0 / stats-read=0 / no-lossless / no-cu-lossless / aq-mode=3 / aq-strength=0.80 / cbqpoffs=0 / crqpoffs=0 / ipratio=1.40 / pbratio=1.30 / psy-rd=2.00 / psy-rdoq=0.00 / deblock=0:0 / ref=6 / limit-refs=1 / no-limit-modes / bframes=8 / b-adapt=2 / bframe-bias=0 / b-pyramid / b-intra / weightp / weightb / min-keyint=24 / max-keyint=240 / rc-lookahead=24 / gop-lookahead=0 / NTMzNTQ=uuDQuD2mJt9fsCf / scenecut=40 / hist-scenecut=0 / radl=0 / max-cu-size=64 / min-cu-size=8 / me=3 / subme=7 / merange=48 / rdoq-level=0 / rd=4 / rdpenalty=0 / dynamic-rd=0.00 / no-rd-refine / ----- / cutree / sao / no-rect / no-amp / no-open-gop / wpp / no-pmode / pme / no-psnr / no-ssim / nr-intra=0 / nr-inter=0 / no-constrained-intra / no-strong-intra-smoothing / max-tu-size=32 / tu-inter-depth=1 / tu-intra-depth=1 / limit-tu=0 / qg-size=32 / qpmax=69 / qpmin=0 / ----- / cpuid=533541111039 / frame-threads=4 / numa-pools=+ / log-level=2 / input-csp=1 / input-res=1920x820 / interlace=0 / level-idc=0 / high-tier=1 / uhd-bd=0 / no-allow-non-conformance / no-repeat-headers / aud / no-hrd / info / hash=0 / no-temporal-layers / lookahead-slices=0 / no-splice / no-intra-refresh / no-ssim-rd / signhide / no-tskip / max-merge=3 / temporal-mvp / no-frame-dup / no-hme / no-analyze-src-pics / no-sao-non-deblock / selective-sao=4 / early-skip / rskip / no-fast-intra / no-tskip-fast / no-splitrd-skip / zone-count=0 / no-strict-cbr / no-rc-grain / no-const-vbv / sar=0 / overscan=0 / videoformat=5 / range=0 / colorprim=2 / transfer=2 / colormatrix=2 / chromaloc=0 / display-window=0 / cll=0,0 / min-luma=0 / max-luma=1023 / log2-max-poc-lsb=8 / vui-timing-info / vui-hrd-info / slices=1 / no-opt-qp-pps / no-opt-ref-list-length-pps / no-multi-pass-opt-rps / scenecut-bias=0.05 / hist-threshold=0.03 / no-opt-cu-delta-qp / no-aq-motion / no-hdr10 / no-hdr10-opt / no-dhdr10-opt / no-idr-recovery-sei / analysis-reuse-level=0 / analysis-save-reuse-level=0 / analysis-load-reuse-level=0 / scale-factor=0 / refine-intra=0 / refine-inter=0 / refine-mv=1 / refine-ctu-distortion=0 / no-limit-sao / ctu-info=0 / no-lowpass-dct / refine-analysis-type=0 / copy-pic=1 / max-ausize-factor=1.0 / no-dynamic-refine / no-single-sei / no-hevc-aq / no-svt / no-field / qp-adaptation-range=1.00 / scenecut-aware-qp=0conformance-window-offsets / right=0 / bottom=0 / NTMzNTQ= / decoder-max-rate=0 / no-vbv-live-multi-pass

  36. Default : Yes

  37. Forced : No


  38. Audio

  39. ID : 2

  40. ID in the original source medium : 4352 (0x1100)

  41. Format : DTS

  42. Format/Info : Digital Theater Systems

  43. Codec ID : A_DTS

  44. Duration : 1 h 58 min

  45. Bit rate mode : Constant

  46. Bit rate : 1 509 kb/s

  47. Channel(s) : 6 channels

  48. Channel layout : C L R Ls Rs LFE

  49. Sampling rate : 48.0 kHz

  50. Frame rate : 93.750 FPS (512 SPF)

  51. Bit depth : 24 bits

  52. Compression mode : Lossy

  53. Stream size : 1.25 GiB (18%)

  54. Language : English

  55. Default : Yes

  56. Forced : No

  57. Original source medium : Blu-ray


  58. Text #1

  59. ID : 3

  60. ID in the original source medium : 4609 (0x1201)

  61. Format : PGS

  62. Muxing mode : zlib

  63. Codec ID : S_HDMV/PGS

  64. Codec ID/Info : Picture based subtitle format used on BDs/HD-DVDs

  65. Duration : 1 h 51 min

  66. Bit rate : 65.5 kb/s

  67. Count of elements : 3464

  68. Stream size : 52.2 MiB (1%)

  69. Title : chs&eng

  70. Language : Chinese

  71. Default : Yes

  72. Forced : No

  73. Original source medium : Blu-ray


  74. Text #2

  75. ID : 4

  76. ID in the original source medium : 4610 (0x1202)

  77. Format : PGS

  78. Muxing mode : zlib

  79. Codec ID : S_HDMV/PGS

  80. Codec ID/Info : Picture based subtitle format used on BDs/HD-DVDs

  81. Duration : 1 h 51 min

  82. Bit rate : 46.4 kb/s

  83. Count of elements : 3464

  84. Stream size : 37.0 MiB (1%)

  85. Title : cht&eng

  86. Language : Chinese

  87. Default : No

  88. Forced : No

  89. Original source medium : Blu-ray


  90. Text #3

  91. ID : 5

  92. ID in the original source medium : 4611 (0x1203)

  93. Format : PGS

  94. Muxing mode : zlib

  95. Codec ID : S_HDMV/PGS

  96. Codec ID/Info : Picture based subtitle format used on BDs/HD-DVDs

  97. Duration : 1 h 51 min

  98. Bit rate : 32.8 kb/s

  99. Count of elements : 3464

  100. Stream size : 26.1 MiB (0%)

  101. Title : chs

  102. Language : Chinese

  103. Default : No

  104. Forced : No

  105. Original source medium : Blu-ray


  106. Text #4

  107. ID : 6

  108. ID in the original source medium : 4612 (0x1204)

  109. Format : PGS

  110. Muxing mode : zlib

  111. Codec ID : S_HDMV/PGS

  112. Codec ID/Info : Picture based subtitle format used on BDs/HD-DVDs

  113. Duration : 1 h 51 min

  114. Bit rate : 28.6 kb/s

  115. Count of elements : 3463

  116. Stream size : 22.8 MiB (0%)

  117. Title : cht

  118. Language : Chinese

  119. Default : No

  120. Forced : No

  121. Original source medium : Blu-ray


  122. Text #5

  123. ID : 7

  124. ID in the original source medium : 4608 (0x1200)

  125. Format : PGS

  126. Muxing mode : zlib

  127. Codec ID : S_HDMV/PGS

  128. Codec ID/Info : Picture based subtitle format used on BDs/HD-DVDs

  129. Duration : 1 h 57 min

  130. Bit rate : 60.0 kb/s

  131. Count of elements : 3344

  132. Stream size : 50.6 MiB (1%)

  133. Title : eng

  134. Language : English

  135. Default : No

  136. Forced : No

  137. Original source medium : Blu-ray


  138. Menu

  139. 00:00:00.000 : Chapter 01

  140. 00:05:03.428 : Chapter 02

  141. 00:09:41.330 : Chapter 03

  142. 00:13:24.011 : Chapter 04

  143. 00:14:59.398 : Chapter 05

  144. 00:16:39.206 : Chapter 06

  145. 00:19:27.082 : Chapter 07

  146. 00:21:11.436 : Chapter 08

  147. 00:25:16.806 : Chapter 09

  148. 00:27:25.352 : Chapter 10

  149. 00:29:48.620 : Chapter 11

  150. 00:32:50.718 : Chapter 12

  151. 00:34:31.235 : Chapter 13

  152. 00:36:04.662 : Chapter 14

  153. 00:38:10.663 : Chapter 15

  154. 00:41:12.261 : Chapter 16

  155. 00:45:20.092 : Chapter 17

  156. 00:47:01.360 : Chapter 18

  157. 00:50:10.590 : Chapter 19

  158. 00:53:47.307 : Chapter 20

  159. 00:56:58.957 : Chapter 21

  160. 01:06:37.410 : Chapter 22

  161. 01:13:45.295 : Chapter 23

  162. 01:21:37.183 : Chapter 24

  163. 01:24:40.283 : Chapter 25

  164. 01:34:43.678 : Chapter 26

  165. 01:40:04.540 : Chapter 27

  166. 01:45:08.385 : Chapter 28

  167. 01:50:28.538 : Chapter 29

  168. 01:51:49.786 : Chapter 30



文件下载


除非特别注明,本文『水中生活[中文字幕].The.Life.Aquatic.with.Steve.Zissou.2004.1080p.BluRay.x265.10bit.DTS 7.03GB』来源于互联网机器人自动抓取,非本站原创。 浮游电影网不对本文拥有版权,如有侵犯,请联系邮箱:fuyouu#yandex.com[#换成@]投诉。我们会在15个工作日内删除。 但烦请转载时请标明出处:“本文转载于『浮游电影网』,原文地址:https://www.fuyouu.com/14855.html

评论吧骚年!

发表你的见解   

昵称*

E-mail*(建议输入,以便收到博主回复的提示邮件)

验证码*

您可以使用eMule或eMule Mod(Windows)、aMule(Win、Linux、Mac)等软件下载eD2k链接。。
eMule收藏集(.emulecollection)文件是您选中的所有链接的列表文件。eMule可以直接下载它们。
按住SHIFT键选择可以选中多个选择框。
可用文件名和大小选择器来选择文件。
文件名选择器帮您根据文件名称或后缀来选择文件。不分大小写。
符号使用:
和:空格( )、+
不包含:-
或:|
转义:一对英文引号("");
匹配开头:^
匹配结尾:$
例如:
选中所有名称中包含有“eMule”或“0.49c”字眼,但不包含有“exe”字眼的:emule|0.49c -exe
选中所有名称的开头是“eMule”,结尾是“0.49c”的:^emule 0.49c$
选中所有名称中带有“eMule 0.49c”的(必须是“eMule 0.49c”,中间没有别的字符,不能是“eMule fake 0.49c”),需要转义:"emule 0.49c"
大小选择器帮您根据文件大小选择文件。