当前位置: 首页 >> 欧美电影 >> 邻居大战2:姐妹会崛起[中文字幕/特效字幕].Neighbors.2.Sorority.Rising.2016.BluRay.1080p.DTS-HD.MA.5.1.x265.10bit 5.31GB >> 正文

邻居大战2:姐妹会崛起[中文字幕/特效字幕].Neighbors.2.Sorority.Rising.2016.BluRay.1080p.DTS-HD.MA.5.1.x265.10bit 5.31GB

2021年10月10日 12:18:01     电影发布:来源于网络     电影分类:欧美电影     评论(0)    

邻居大战2:姐妹会崛起[中文字幕/特效字幕].Neighbors.2.Sorority.Rising.2016.BluRay.1080p.DTS HD.MA.5.1.x265.10bit 5.31GB 喜剧片 欧美电影  第1张

◎译 名 邻居大战2:姐妹会崛起/Bad Neighbors 2/恶邻居2/恶邻缠身2(台)/贱邻2(港)

◎片 名 Neighbors 2: Sorority Rising

◎年 代 2016

◎产 地 美国

◎类 别 喜剧

◎语 言 英语

◎上映日期 2016-05-20(美国)

◎豆瓣评分 5.4/10 from 11262 users

◎豆瓣链接 https://movie.douban.com/subject/26322972/

◎片 长 92分钟

◎导 演 尼古拉斯·斯托勒 Nicholas Stoller

◎编 剧 安德鲁·J·科恩 Andrew J. Cohen / 布伦达·奥伯里恩 Brendan O'Brien / 尼古拉斯·斯托勒 Nicholas Stoller / 塞斯·罗根 Seth Rogen / 埃文·戈德堡 Evan Goldberg / 布兰登·奥布莱恩 Brendan O'Brien

◎主 演 塞斯·罗根 Seth Rogen

扎克·埃夫隆 Zac Efron

罗丝·伯恩 Rose Byrne

科洛·莫瑞兹 Chlo? Grace Moretz

伊克·巴里霍尔兹 Ike Barinholtz

卡拉·盖洛 Carla Gallo

科雷西·克莱门斯 Kiersey Clemons

比妮·费尔德斯坦 Beanie Feldstein

戴夫·弗兰科 Dave Franco

赛琳娜·戈麦斯 Selena Gomez

丽莎·库卓 Lisa Kudrow

比利·艾希纳 Billy Eichner

卡梅隆·达拉斯 Cameron Dallas

杰洛德·卡尔迈克 Jerrod Carmichael

凯尔希·格兰莫 Kelsey Grammer

塞拉·达维 Sierra Davey

克里斯托夫·梅兹-普莱瑟 Christopher Mintz-Plasse

汉尼拔·布勒斯 Hannibal Buress

约翰尼·彭伯顿 Johnny Pemberton

克莱拉·马梅特 Clara Mamet

山姆·理查森 Sam Richardson

艾比·雅各布森 Abbi Jacobson

利兹·卡科斯基 Liz Cackowski

布莱恩·赫斯基 Brian Huskey

乔顿卡尔文 Jordanne Calvin

凯尔·穆尼 Kyle Mooney

奥卡菲娜 Awkwafina

约翰·厄尔利 John Early

◎标 签 喜剧 | 美国 | 2016 | 搞笑 | 青春 | 三俗 | 重口味 | 节操

◎简 介

环球影业今日宣布,将打造2014年暑期档黑马R级喜剧片《邻居大战》的续集,并定档于2016年5月13日在北美上映。影片主演塞斯·罗根、扎克·埃夫隆以及萝丝·拜恩将悉数回归。

据《好莱坞报道者》透露,《邻居大战》续集将上演“性别大置换”。在首部曲中,罗根与拜恩饰演一对拥有新生女儿的年轻夫妻,与隔壁新搬来的吵闹的大学兄弟会年轻人展开激烈大战,但在续集中他们将面对的新邻居是一群有过之而无不及的大学姐妹会的女学生。在几轮交锋之后,小夫妻感到力不从心,于是他们请来了外援,这就是在第一部中与他们从敌到友——由恶魔兄弟会会长“从良”为A&F花样男模的扎克·埃夫隆。

  1. ##### MediaInfo ######

  2. General

  3. Unique ID : 43013654023843207063283885615822840872 (0x205C20E0CD42A0AFD84685475FF2A428)

  4. Complete name : Neighbors.2.S[email protected]BBQDDQ.COM.mkv

  5. Format : Matroska

  6. Format version : Version 4

  7. File size : 5.31 GiB

  8. Duration : 1 h 32 min

  9. Overall bit rate mode : Variable

  10. Overall bit rate : 8 232 kb/s

  11. Encoded date : UTC 2021-10-08 14:46:35

  12. Writing application : mkvmerge v60.0.0 ('Are We Copies?') 64-bit

  13. Writing library : libebml v1.4.2 + libmatroska v1.6.4


  14. Video

  15. ID : 1

  16. Format : HEVC

  17. Format/Info : High Efficiency Video Coding

  18. Format profile : Main [email protected]@Main

  19. Codec ID : V_MPEGH/ISO/HEVC

  20. Duration : 1 h 32 min

  21. Bit rate : 4 323 kb/s

  22. Width : 1 920 pixels

  23. Height : 800 pixels

  24. Display aspect ratio : 2.40:1

  25. Frame rate mode : Constant

  26. Frame rate : 23.976 (24000/1001/53354) FPS

  27. Color space : YUV

  28. Chroma subsampling : 4:2:0

  29. Bit depth : 10 bits

  30. Bits/(Pixel*Frame) : 0.117

  31. Stream size : 2.79 GiB (53%)

  32. Writing library : x265 3.5+11-c8905a745:[Windows][MSVC 1929][64 bit] 10bit

  33. Encoding settings : cpuid=533541111039 / frame-threads=4 / numa-pools=16 / wpp / no-pmode / pme / no-psnr / no-ssim / log-level=2 / input-csp=1 / input-res=1920x800 / interlace=0 / total-frames=0 / level-idc=0 / high-tier=1 / uhd-bd=0 / ref=6 / no-allow-non-conformance / repeat-headers / annexb / no-aud / no-eob / no-eos / no-hrd / info / hash=0 / no-temporal-layers / no-open-gop / min-keyint=23 / keyint=250 / gop-lookahead=0 / bframes=8 / b-adapt=2 / b-pyramid / bframe-bias=0 / rc-lookahead=57 / lookahead-slices=5 / NTMzNTQ=uuDQuD2mJt9fsCf / scenecut=40 / no-hist-scenecut / radl=0 / no-splice / no-intra-refresh / ctu=64 / min-cu-size=8 / no-rect / no-amp / max-tu-size=32 / tu-inter-depth=1 / tu-intra-depth=1 / limit-tu=0 / rdoq-level=0 / dynamic-rd=0.00 / no-ssim-rd / signhide / no-tskip / nr-intra=0 / nr-inter=0 / no-constrained-intra / no-strong-intra-smoothing / max-merge=3 / limit-refs=1 / no-limit-modes / me=2 / subme=7 / merange=57 / temporal-mvp / no-frame-dup / no-hme / weightp / weightb / no-analyze-src-pics / deblock=0:0 / sao / no-sao-non-deblock / rd=4 / selective-sao=4 / early-skip / rskip / no-fast-intra / no-tskip-fast / no-cu-lossless / b-intra / no-splitrd-skip / rdpenalty=0 / psy-rd=2.00 / psy-rdoq=0.00 / no-rd-refine / no-lossless / cbqpoffs=0 / crqpoffs=0 / rc=crf / crf=16.0 / qcomp=0.60 / qpstep=4 / stats-write=0 / stats-read=0 / ipratio=1.40 / pbratio=1.30 / aq-mode=3 / aq-strength=1.00 / cutree / zone-count=0 / no-strict-cbr / qg-size=32 / no-rc-grain / qpmax=69 / qpmin=0 / no-const-vbv / sar=0 / overscan=0 / videoformat=5 / range=0 / colorprim=2 / transfer=2 / colormatrix=2 / chromaloc=0 / display-window=0 / cll=0,0 / min-luma=0 / max-luma=1023 / log2-max-poc-lsb=8 / vui-timing-info / vui-hrd-info / slices=1 / no-opt-qp-pps / no-opt-ref-list-length-pps / no-multi-pass-opt-rps / scenecut-bias=0.05 / hist-threshold=0.03 / no-opt-cu-delta-qp / aq-motion / no-hdr10 / no-hdr10-opt / no-dhdr10-opt / no-idr-recovery-sei / analysis-reuse-level=0 / analysis-save-reuse-level=0 / analysis-load-reuse-level=0 / scale-factor=0 / refine-intra=0 / refine-inter=0 / refine-mv=1 / refine-ctu-distortion=0 / no-limit-sao / ctu-info=0 / no-lowpass-dct / refine-analysis-type=0 / copy-pic=1 / max-ausize-factor=1.0 / no-dynamic-refine / no-single-sei / no-hevc-aq / no-svt / no-field / qp-adaptation-range=1.00 / scenecut-aware-qp=0conformance-window-offsets / right=0 / bottom=0 / NTMzNTQ= / decoder-max-rate=0 / no-vbv-live-multi-pass

  34. Default : Yes

  35. Forced : No


  36. Audio

  37. ID : 2

  38. Format : DTS XLL

  39. Format/Info : Digital Theater Systems

  40. Commercial name : DTS-HD Master Audio

  41. Codec ID : A_DTS

  42. Duration : 1 h 32 min

  43. Bit rate mode : Variable

  44. Bit rate : 3 680 kb/s

  45. Channel(s) : 6 channels

  46. Channel layout : C L R Ls Rs LFE

  47. Sampling rate : 48.0 kHz

  48. Frame rate : 93.750 FPS (512 SPF)

  49. Bit depth : 24 bits

  50. Compression mode : Lossless

  51. Stream size : 2.37 GiB (45%)

  52. Default : Yes

  53. Forced : No


  54. Text #1

  55. ID : 3

  56. Format : PGS

  57. Muxing mode : zlib

  58. Codec ID : S_HDMV/PGS

  59. Codec ID/Info : Picture based subtitle format used on BDs/HD-DVDs

  60. Duration : 1 h 25 min

  61. Bit rate : 73.9 kb/s

  62. Count of elements : 4534

  63. Stream size : 45.1 MiB (1%)

  64. Title : 英文

  65. Language : English

  66. Default : Yes

  67. Forced : No


  68. Text #2

  69. ID : 4

  70. Format : PGS

  71. Muxing mode : zlib

  72. Codec ID : S_HDMV/PGS

  73. Codec ID/Info : Picture based subtitle format used on BDs/HD-DVDs

  74. Duration : 1 h 26 min

  75. Bit rate : 90.1 kb/s

  76. Count of elements : 6061

  77. Stream size : 55.5 MiB (1%)

  78. Title : 简中

  79. Language : Chinese

  80. Default : Yes

  81. Forced : No


  82. Text #3

  83. ID : 5

  84. Format : PGS

  85. Muxing mode : zlib

  86. Codec ID : S_HDMV/PGS

  87. Codec ID/Info : Picture based subtitle format used on BDs/HD-DVDs

  88. Duration : 1 h 26 min

  89. Bit rate : 91.2 kb/s

  90. Count of elements : 6061

  91. Stream size : 56.1 MiB (1%)

  92. Title : 繁中

  93. Language : Chinese

  94. Default : Yes

  95. Forced : No


  96. Text #4

  97. ID : 6

  98. Format : PGS

  99. Muxing mode : zlib

  100. Codec ID : S_HDMV/PGS

  101. Codec ID/Info : Picture based subtitle format used on BDs/HD-DVDs

  102. Duration : 1 h 26 min

  103. Bit rate : 129 kb/s

  104. Count of elements : 6063

  105. Stream size : 79.6 MiB (1%)

  106. Title : 简英

  107. Language : Chinese

  108. Default : Yes

  109. Forced : No


  110. Text #5

  111. ID : 7

  112. Format : PGS

  113. Muxing mode : zlib

  114. Codec ID : S_HDMV/PGS

  115. Codec ID/Info : Picture based subtitle format used on BDs/HD-DVDs

  116. Duration : 1 h 26 min

  117. Bit rate : 130 kb/s

  118. Count of elements : 6063

  119. Stream size : 80.2 MiB (1%)

  120. Title : 繁英

  121. Language : Chinese

  122. Default : Yes

  123. Forced : No


  124. Menu

  125. 00:00:00.000 : :第 01 章

  126. 00:06:30.890 : :第 02 章

  127. 00:09:50.381 : :第 03 章

  128. 00:13:05.535 : :第 04 章

  129. 00:17:37.890 : :第 05 章

  130. 00:22:13.082 : :第 06 章

  131. 00:27:34.278 : :第 07 章

  132. 00:31:54.454 : :第 08 章

  133. 00:38:36.022 : :第 09 章

  134. 00:44:43.222 : :第 10 章

  135. 00:50:42.039 : :第 11 章

  136. 00:54:32.811 : :第 12 章

  137. 01:00:54.609 : :第 13 章

  138. 01:04:14.684 : :第 14 章

  139. 01:08:26.644 : :第 15 章

  140. 01:12:54.370 : :第 16 章

  141. 01:16:34.423 : :第 17 章

  142. 01:20:45.215 : :第 18 章

  143. 01:23:18.994 : :第 19 章

  144. 01:26:03.700 : :第 20 章




复制代码



文件下载


除非特别注明,本文『邻居大战2:姐妹会崛起[中文字幕/特效字幕].Neighbors.2.Sorority.Rising.2016.BluRay.1080p.DTS-HD.MA.5.1.x265.10bit 5.31GB』来源于互联网机器人自动抓取,非本站原创。 浮游电影网不对本文拥有版权,如有侵犯,请联系邮箱:fuyouu#yandex.com[#换成@]投诉。我们会在15个工作日内删除。 但烦请转载时请标明出处:“本文转载于『浮游电影网』,原文地址:https://www.fuyouu.com/14854.html

评论吧骚年!

发表你的见解   

昵称*

E-mail*(建议输入,以便收到博主回复的提示邮件)

验证码*

您可以使用eMule或eMule Mod(Windows)、aMule(Win、Linux、Mac)等软件下载eD2k链接。。
eMule收藏集(.emulecollection)文件是您选中的所有链接的列表文件。eMule可以直接下载它们。
按住SHIFT键选择可以选中多个选择框。
可用文件名和大小选择器来选择文件。
文件名选择器帮您根据文件名称或后缀来选择文件。不分大小写。
符号使用:
和:空格( )、+
不包含:-
或:|
转义:一对英文引号("");
匹配开头:^
匹配结尾:$
例如:
选中所有名称中包含有“eMule”或“0.49c”字眼,但不包含有“exe”字眼的:emule|0.49c -exe
选中所有名称的开头是“eMule”,结尾是“0.49c”的:^emule 0.49c$
选中所有名称中带有“eMule 0.49c”的(必须是“eMule 0.49c”,中间没有别的字符,不能是“eMule fake 0.49c”),需要转义:"emule 0.49c"
大小选择器帮您根据文件大小选择文件。