当前位置: 首页 >> 动画电影 >> 寻龙传说[国语配音].Raya.and.the.Last.Dragon.2021.2160p.HDR.UHD.BluRay.TrueHD.7.1.Atmos.3Audio.x265-10bit 17. >> 正文

寻龙传说[国语配音].Raya.and.the.Last.Dragon.2021.2160p.HDR.UHD.BluRay.TrueHD.7.1.Atmos.3Audio.x265-10bit 17.

2021年10月10日 12:16:31     电影发布:来源于网络     电影分类:动画电影     评论(0)    

寻龙传说[国语配音].Raya.and.the.Last.Dragon.2021.2160p.HDR.UHD.BluRay.TrueHD.7.1.Atmos.3Audio.x265 10bit 17. 动画片 奇幻片 冒险片 动画电影  第1张

◎译 名 寻龙传说/寻龙使者:拉雅(台)/拉雅和最后的龙/瑞亚和最后一条龙/魔龙王国(港)

◎片 名 Raya and The Last Dragon

◎年 代 2021

◎产 地 美国

◎类 别 动画 / 奇幻 / 冒险

◎语 言 英语

◎上映日期 2021-03-05(中国大陆/美国)

◎豆瓣评分 7.1/10 from 94379 users

◎豆瓣链接 https://movie.douban.com/subject/34804147/

◎片 长 108分钟

◎导 演 唐·霍尔 Don Hall / 卡洛斯·洛佩斯·埃斯特拉达 Carlos López Estrada / 保罗·布里格斯 Paul Briggs / 约翰·瑞帕 John Ripa

◎编 剧 阮基 Qui Nguyen / 阿黛勒·林 Adele Lim / 保罗·布里格斯 Paul Briggs / 唐·霍尔 Don Hall / 卡洛斯·洛佩斯·埃斯特拉达 Carlos López Estrada / 基尔·默里 Kiel Murray / 约翰·瑞帕 John Ripa / 迪恩·威林斯 Dean Wellins

◎主 演 凯莉·玛丽·陈 Kelly Marie Tran

奥卡菲娜 Awkwafina

嘉玛·陈 Gemma Chan

金大贤 Daniel Dae Kim

吴珊卓 Sandra Oh

本尼迪克特·王 Benedict Wong

伊扎克·王 Izaac Wang

塔莉娅·陈 Thalia Tran

艾伦·图代克 Alan Tudyk

迪辰·拉克曼 Dichen Lachman

帕蒂·哈里森 Patti Harrison

姜成镐 Sung Kang

罗斯·巴特勒 Ross Butler

乔娜·肖 Jona Xiao

宋静秀 Lucille Soong

弗朗克西斯·周 Fran?ois Chau

保罗·扬 Paul Yen

丽莎·德尔·门多 Liza Del Mundo

塔妮亚·古纳迪 Tania Gunadi

珍妮·关 Jennie Kwan

卢锡安·佩雷兹 Lucian Perez

文森特·罗德里格兹三世 Vincent Rodriguez III

JB Tadena

赵丽颖 Liying Zhao

◎标 签 迪士尼 | 动画 | 奇幻 | 冒险 | 成长 | 美国 | 女性 | 2021

◎简 介

很久以前,在充满奇幻色彩的龙佑之邦,人类和龙和谐地生活在一起。但当一股邪恶的力量袭来,龙牺牲了自己来拯救人类。500年后,同样的邪恶力量卷土重来,只有一个孤独的战士拉雅(凯莉·玛丽·陈 配音)承担重任,追踪传说中的最后一条龙,以修复这块破碎的土地,团结分裂的人民。在她的旅程中,她也会逐渐了解到拯救世界不仅仅需要一条龙,还需要信任和团队合作。

  1. ##### MediaInfo ######

  2. General

  3. Unique ID : 330926709809025269029602950394993848871 (0xF8F62A7DC9C38DD56D8EEDB2943E3227)

  4. Complete name : Raya.and.the.Last.Dragon.202[email protected]BBQDDQ.COM.mkv

  5. Format : Matroska

  6. Format version : Version 4

  7. File size : 17.8 GiB

  8. Duration : 1 h 47 min

  9. Overall bit rate mode : Variable

  10. Overall bit rate : 23.7 Mb/s

  11. Movie name : Raya and the Last Dragon 2021 2160p HDR UHD BluRay TrueHD 7.1 Atmos 3Audio [email protected]

  12. Encoded date : UTC 2021-10-09 01:27:23

  13. Writing application : mkvmerge v38.0.0 ('The Silent Type') 64-bit

  14. Writing library : libebml v1.3.9 + libmatroska v1.5.2


  15. Video

  16. ID : 1

  17. Format : HEVC

  18. Format/Info : High Efficiency Video Coding

  19. Format profile : Main [email protected]@High

  20. HDR format : SMPTE ST 2086, HDR10 compatible

  21. Codec ID : V_MPEGH/ISO/HEVC

  22. Duration : 1 h 47 min

  23. Bit rate : 12.0 Mb/s

  24. Width : 3 840 pixels

  25. Height : 1 608 pixels

  26. Display aspect ratio : 2.40:1

  27. Frame rate mode : Constant

  28. Frame rate : 23.976 (24000/1001/53354) FPS

  29. Color space : YUV

  30. Chroma subsampling : 4:2:0

  31. Bit depth : 10 bits

  32. Bits/(Pixel*Frame) : 0.081

  33. Stream size : 9.03 GiB (51%)

  34. Title : @HDSky

  35. Writing library : x265 - H.265/HEVC codec

  36. Default : Yes

  37. Forced : No

  38. Color range : Limited

  39. Color primaries : BT.2020

  40. Transfer characteristics : PQ

  41. Matrix coefficients : BT.2020 non-constant

  42. Mastering display color primaries : Display P3

  43. Mastering display luminance : min: 0.0020 cd/m2, max: 1000 cd/m2

  44. Maximum Content Light Level : 739 cd/m2

  45. Maximum Frame-Average Light Level : 331 cd/m2


  46. Audio #1

  47. ID : 2

  48. Format : MLP FBA 16-ch

  49. Format/Info : Meridian Lossless Packing FBA with 16-channel presentation

  50. Commercial name : Dolby TrueHD with Dolby Atmos

  51. Codec ID : A_TRUEHD

  52. Duration : 1 h 47 min

  53. Bit rate mode : Variable

  54. Bit rate : 8 470 kb/s

  55. Maximum bit rate : 11.2 Mb/s

  56. Channel(s) : 8 channels

  57. Channel layout : L R C LFE Ls Rs Lb Rb

  58. Sampling rate : 48.0 kHz

  59. Frame rate : 1 200.000 FPS (40 SPF)

  60. Compression mode : Lossless

  61. Stream size : 6.36 GiB (36%)

  62. Title : English

  63. Language : English

  64. Default : Yes

  65. Forced : No

  66. Number of dynamic objects : 13

  67. Bed channel count : 1 channel

  68. Bed channel configuration : LFE


  69. Audio #2

  70. ID : 3

  71. Format : DTS

  72. Format/Info : Digital Theater Systems

  73. Codec ID : A_DTS

  74. Duration : 1 h 47 min

  75. Bit rate mode : Constant

  76. Bit rate : 1 509 kb/s

  77. Channel(s) : 6 channels

  78. Channel layout : C L R Ls Rs LFE

  79. Sampling rate : 48.0 kHz

  80. Frame rate : 93.750 FPS (512 SPF)

  81. Bit depth : 24 bits

  82. Compression mode : Lossy

  83. Stream size : 1.13 GiB (6%)

  84. Title : Mandarin

  85. Language : Chinese

  86. Default : No

  87. Forced : No


  88. Audio #3

  89. ID : 4

  90. Format : DTS

  91. Format/Info : Digital Theater Systems

  92. Codec ID : A_DTS

  93. Duration : 1 h 47 min

  94. Bit rate mode : Constant

  95. Bit rate : 1 509 kb/s

  96. Channel(s) : 2 channels

  97. Channel layout : L R

  98. Sampling rate : 48.0 kHz

  99. Frame rate : 93.750 FPS (512 SPF)

  100. Bit depth : 24 bits

  101. Compression mode : Lossy

  102. Stream size : 1.13 GiB (6%)

  103. Title : Mandarin

  104. Language : Chinese

  105. Default : No

  106. Forced : No


  107. Text #1

  108. ID : 5

  109. Format : PGS

  110. Muxing mode : zlib

  111. Codec ID : S_HDMV/PGS

  112. Codec ID/Info : Picture based subtitle format used on BDs/HD-DVDs

  113. Duration : 1 h 46 min

  114. Bit rate : 44.3 kb/s

  115. Count of elements : 3839

  116. Stream size : 33.7 MiB (0%)

  117. Title : ENG

  118. Language : English

  119. Default : Yes

  120. Forced : No


  121. Text #2

  122. ID : 6

  123. Format : PGS

  124. Muxing mode : zlib

  125. Codec ID : S_HDMV/PGS

  126. Codec ID/Info : Picture based subtitle format used on BDs/HD-DVDs

  127. Duration : 1 h 33 min

  128. Bit rate : 31.5 kb/s

  129. Count of elements : 2467

  130. Stream size : 21.0 MiB (0%)

  131. Title : CHS

  132. Language : Chinese

  133. Default : No

  134. Forced : No


  135. Text #3

  136. ID : 7

  137. Format : PGS

  138. Muxing mode : zlib

  139. Codec ID : S_HDMV/PGS

  140. Codec ID/Info : Picture based subtitle format used on BDs/HD-DVDs

  141. Duration : 1 h 33 min

  142. Bit rate : 32.3 kb/s

  143. Count of elements : 2467

  144. Stream size : 21.5 MiB (0%)

  145. Title : CHT

  146. Language : Chinese

  147. Default : No

  148. Forced : No


  149. Text #4

  150. ID : 8

  151. Format : PGS

  152. Muxing mode : zlib

  153. Codec ID : S_HDMV/PGS

  154. Codec ID/Info : Picture based subtitle format used on BDs/HD-DVDs

  155. Duration : 1 h 33 min

  156. Bit rate : 49.0 kb/s

  157. Count of elements : 2467

  158. Stream size : 32.7 MiB (0%)

  159. Title : CHS&ENG

  160. Language : Chinese

  161. Default : No

  162. Forced : No


  163. Text #5

  164. ID : 9

  165. Format : PGS

  166. Muxing mode : zlib

  167. Codec ID : S_HDMV/PGS

  168. Codec ID/Info : Picture based subtitle format used on BDs/HD-DVDs

  169. Duration : 1 h 33 min

  170. Bit rate : 50.5 kb/s

  171. Count of elements : 2467

  172. Stream size : 33.7 MiB (0%)

  173. Title : CHT&ENG

  174. Language : Chinese

  175. Default : No

  176. Forced : No


  177. Menu

  178. 00:00:00.000 : en:Chapter 01

  179. 00:08:08.696 : en:Chapter 02

  180. 00:11:00.158 : en:Chapter 03

  181. 00:15:16.414 : en:Chapter 04

  182. 00:20:15.338 : en:Chapter 05

  183. 00:28:28.748 : en:Chapter 06

  184. 00:35:56.903 : en:Chapter 07

  185. 00:37:43.260 : en:Chapter 08

  186. 00:41:12.594 : en:Chapter 09

  187. 00:43:19.387 : en:Chapter 10

  188. 00:48:56.391 : en:Chapter 11

  189. 00:51:31.503 : en:Chapter 12

  190. 00:53:13.731 : en:Chapter 13

  191. 00:55:21.067 : en:Chapter 14

  192. 00:59:08.043 : en:Chapter 15

  193. 01:01:57.380 : en:Chapter 16

  194. 01:04:34.577 : en:Chapter 17

  195. 01:06:47.293 : en:Chapter 18

  196. 01:11:21.819 : en:Chapter 19

  197. 01:15:51.212 : en:Chapter 20

  198. 01:18:41.006 : en:Chapter 21

  199. 01:28:26.216 : en:Chapter 22

  200. 01:35:08.284 : en:Chapter 23




复制代码



文件下载
除非特别注明,本文『寻龙传说[国语配音].Raya.and.the.Last.Dragon.2021.2160p.HDR.UHD.BluRay.TrueHD.7.1.Atmos.3Audio.x265-10bit 17.』来源于互联网机器人自动抓取,非本站原创。 浮游电影网不对本文拥有版权,如有侵犯,请联系邮箱:fuyouu#yandex.com[#换成@]投诉。我们会在15个工作日内删除。 但烦请转载时请标明出处:“本文转载于『浮游电影网』,原文地址:https://www.fuyouu.com/14853.html

评论吧骚年!

发表你的见解   

昵称*

E-mail*(建议输入,以便收到博主回复的提示邮件)

验证码*

您可以使用eMule或eMule Mod(Windows)、aMule(Win、Linux、Mac)等软件下载eD2k链接。。
eMule收藏集(.emulecollection)文件是您选中的所有链接的列表文件。eMule可以直接下载它们。
按住SHIFT键选择可以选中多个选择框。
可用文件名和大小选择器来选择文件。
文件名选择器帮您根据文件名称或后缀来选择文件。不分大小写。
符号使用:
和:空格( )、+
不包含:-
或:|
转义:一对英文引号("");
匹配开头:^
匹配结尾:$
例如:
选中所有名称中包含有“eMule”或“0.49c”字眼,但不包含有“exe”字眼的:emule|0.49c -exe
选中所有名称的开头是“eMule”,结尾是“0.49c”的:^emule 0.49c$
选中所有名称中带有“eMule 0.49c”的(必须是“eMule 0.49c”,中间没有别的字符,不能是“eMule fake 0.49c”),需要转义:"emule 0.49c"
大小选择器帮您根据文件大小选择文件。