当前位置: 首页 >> 日韩电影 >> 水手服与机关枪[简繁字幕].Sailor.Suit.and.Machine.Gun.1981.Remastered.BluRay.1080p.DTS-HD.MA5.1.x265.10bit 15.94 >> 正文

水手服与机关枪[简繁字幕].Sailor.Suit.and.Machine.Gun.1981.Remastered.BluRay.1080p.DTS-HD.MA5.1.x265.10bit 15.94

2021年10月10日 12:13:38     电影发布:来源于网络     电影分类:日韩电影     评论(0)    

水手服与机关枪[简繁字幕].Sailor.Suit.and.Machine.Gun.1981.Remastered.BluRay.1080p.DTS HD.MA5.1.x265.10bit 15.94 爱情片 动作片 日韩电影  第1张

◎译 名 水手服与机关枪/Sailor Suit and Machine Gun

◎片 名 セーラー服と機関銃

◎年 代 1981

◎产 地 日本

◎类 别 动作 / 爱情

◎语 言 日语

◎上映日期 1981-12-19(日本) / 1982-07-10(完整版)

◎豆瓣评分 7.2/10 from 1841 users

◎豆瓣链接 https://movie.douban.com/subject/1547089/

◎片 长 112分钟

◎导 演 相米慎二 Shinji S?mai

◎编 剧 田中阳造 Y?z? Tanaka / 赤川次郎 Jir? Akagawa

◎主 演 药师丸博子 Hiroko Yakushimaru

渡濑恒彦 Tsunehiko Watase

风祭由纪 Yuki Kazamatsuri

大门正明 Masaaki Daimon

林家 しん平 Shinpei Hayashiya

酒井敏也 Toshiya Sakai

柳泽慎吾 Shingo Yanagisawa

光石研 Ken Mitsuishi

柄本明 Akira Emoto

佐藤允 Makoto Sat?

北村和夫 Kazuo Kitamura

寺田农 Minori Terada

三国连太郎 Rentar? Mikuni

藤原釜足 Kamatari Fujiwara

斋藤洋介 Y?suke Sait?

奥村公延 K?en Okumura

冈龙也 Tatsuya Oka

◎标 签 日本 | 相米慎二 | 药师丸博子 | 日本电影 | 青春 | 1981 | 1980s | 电影

◎简 介

星泉(药师丸博子 饰)是一名普通的高中女生,母亲早年去世,父亲亦在最近因车祸离开人间,她孤零零地与父亲的情人麻由美(风祭雪 饰)生活在一起。星泉的远房亲戚是黑帮目高组的组长,如今只剩下四个人的目高组成员为完成组长遗愿,请求星泉代替她的父亲继任组长职务。

星泉不忍见成员们走上亡命道路,同意就任,并拜会上层帮会头目滨口(北村和夫 饰)。数日后黑木刑警(柄本明 饰)向星泉透露其父之死与毒品有关,麻由美亦牵涉其中。星泉开始调查父亲死因,而幕后黑手也展开了行动。弱小的目高组面临被摧毁的命运……

  1. ##### MediaInfo ######

  2. General

  3. Unique ID : 137895069821909713115975153940804503831 (0x67BD9FD9AF01CC1EBA21F2E6E5858917)

  4. Complete name : Sailor.Suit.and.Machine[email protected]BBQDDQ.COM.mkv

  5. Format : Matroska

  6. Format version : Version 4

  7. File size : 15.9 GiB

  8. Duration : 1 h 51 min

  9. Overall bit rate mode : Variable

  10. Overall bit rate : 20.4 Mb/s

  11. Encoded date : UTC 2021-10-07 11:11:59

  12. Writing application : mkvmerge v49.0.0 ('Sick Of Losing Soulmates') 64-bit

  13. Writing library : libebml v1.4.0 + libmatroska v1.6.1


  14. Video

  15. ID : 1

  16. Format : HEVC

  17. Format/Info : High Efficiency Video Coding

  18. Format profile : Main [email protected]@High

  19. Codec ID : V_MPEGH/ISO/HEVC

  20. Duration : 1 h 51 min

  21. Bit rate : 17.3 Mb/s

  22. Width : 1 920 pixels

  23. Height : 1 036 pixels

  24. Display aspect ratio : 1.85:1

  25. Frame rate mode : Constant

  26. Frame rate : 23.976 (24000/1001/53354) FPS

  27. Color space : YUV

  28. Chroma subsampling : 4:2:0

  29. Bit depth : 10 bits

  30. Bits/(Pixel*Frame) : 0.363

  31. Stream size : 13.5 GiB (85%)

  32. Title : HEVC, [email protected]@High, 24/1.001 fps @ 17290 kbps

  33. Writing library : x265 3.4+14-gd419c7152:[Windows][GCC 10.2.0][64 bit] 10bit

  34. Encoding settings : cpuid=533541111039 / frame-threads=4 / numa-pools=16 / wpp / pmode / pme / no-psnr / no-ssim / log-level=2 / input-csp=1 / input-res=1920x1036 / interlace=0 / total-frames=160776 / level-idc=51 / high-tier=1 / uhd-bd=0 / ref=5 / no-allow-non-conformance / no-repeat-headers / annexb / no-aud / no-hrd / info / hash=0 / no-temporal-layers / open-gop / min-keyint=24 / keyint=240 / gop-lookahead=0 / bframes=6 / b-adapt=2 / b-pyramid / bframe-bias=0 / rc-lookahead=40 / lookahead-slices=0 / NTMzNTQ=uuDQuD2mJt9fsCf / scenecut=40 / hist-scenecut=0 / radl=0 / no-splice / no-intra-refresh / ctu=32 / min-cu-size=8 / no-rect / no-amp / max-tu-size=32 / tu-inter-depth=3 / tu-intra-depth=3 / limit-tu=4 / rdoq-level=2 / dynamic-rd=0.00 / no-ssim-rd / signhide / no-tskip / nr-intra=0 / nr-inter=0 / no-constrained-intra / no-strong-intra-smoothing / max-merge=4 / limit-refs=1 / limit-modes / me=3 / subme=4 / merange=25 / temporal-mvp / no-frame-dup / no-hme / weightp / weightb / no-analyze-src-pics / deblock=-3:-3 / no-sao / no-sao-non-deblock / rd=6 / selective-sao=0 / no-early-skip / rskip / no-fast-intra / no-tskip-fast / no-cu-lossless / b-intra / no-splitrd-skip / rdpenalty=0 / psy-rd=2.00 / psy-rdoq=1.00 / no-rd-refine / no-lossless / cbqpoffs=0 / crqpoffs=0 / rc=crf / crf=19.5 / qcomp=0.65 / qpstep=4 / stats-write=0 / stats-read=0 / vbv-maxrate=80000 / vbv-bufsize=80000 / vbv-init=0.9 / crf-max=0.0 / crf-min=0.0 / ipratio=1.40 / pbratio=1.30 / aq-mode=2 / aq-strength=0.85 / cutree / zone-count=0 / no-strict-cbr / qg-size=32 / no-rc-grain / qpmax=69 / qpmin=0 / no-const-vbv / sar=1 / overscan=0 / videoformat=5 / range=0 / colorprim=1 / transfer=1 / colormatrix=1 / chromaloc=0 / display-window=0 / cll=0,0 / min-luma=0 / max-luma=1023 / log2-max-poc-lsb=8 / vui-timing-info / vui-hrd-info / slices=1 / no-opt-qp-pps / no-opt-ref-list-length-pps / no-multi-pass-opt-rps / scenecut-bias=0.05 / hist-threshold=0.03 / no-opt-cu-delta-qp / no-aq-motion / no-hdr10 / no-hdr10-opt / no-dhdr10-opt / no-idr-recovery-sei / analysis-reuse-level=0 / analysis-save-reuse-level=0 / analysis-load-reuse-level=0 / scale-factor=0 / refine-intra=0 / refine-inter=0 / refine-mv=1 / refine-ctu-distortion=0 / no-limit-sao / ctu-info=0 / no-lowpass-dct / refine-analysis-type=0 / copy-pic=1 / max-ausize-factor=1.0 / no-dynamic-refine / no-single-sei / no-hevc-aq / no-svt / no-field / qp-adaptation-range=1.00 / no-scenecut-aware-qpconformance-window-offsets / right=0 / bottom=0 / NTMzNTQ= / decoder-max-rate=0

  35. Language : English

  36. Default : Yes

  37. Forced : No

  38. Color range : Limited

  39. Color primaries : BT.709

  40. Transfer characteristics : BT.709

  41. Matrix coefficients : BT.709


  42. Audio

  43. ID : 2

  44. Format : DTS XLL

  45. Format/Info : Digital Theater Systems

  46. Commercial name : DTS-HD Master Audio

  47. Codec ID : A_DTS

  48. Duration : 1 h 51 min

  49. Bit rate mode : Variable

  50. Bit rate : 2 866 kb/s

  51. Channel(s) : 6 channels

  52. Channel layout : C L R Ls Rs LFE

  53. Sampling rate : 48.0 kHz

  54. Frame rate : 93.750 FPS (512 SPF)

  55. Bit depth : 24 bits

  56. Compression mode : Lossless

  57. Stream size : 2.24 GiB (14%)

  58. Title : Japanese DTS-HD Master Audio 5.1 @ 2866 kbps

  59. Language : Japanese

  60. Default : Yes

  61. Forced : No


  62. Text #1

  63. ID : 3

  64. Format : PGS

  65. Codec ID : S_HDMV/PGS

  66. Codec ID/Info : Picture based subtitle format used on BDs/HD-DVDs

  67. Duration : 1 h 51 min

  68. Bit rate : 216 kb/s

  69. Count of elements : 9829

  70. Stream size : 172 MiB (1%)

  71. Title : Jpn/SUP

  72. Language : Japanese

  73. Default : No

  74. Forced : No


  75. Text #2

  76. ID : 4

  77. Format : PGS

  78. Codec ID : S_HDMV/PGS

  79. Codec ID/Info : Picture based subtitle format used on BDs/HD-DVDs

  80. Duration : 1 h 51 min

  81. Bit rate : 19.3 kb/s

  82. Count of elements : 2506

  83. Stream size : 15.4 MiB (0%)

  84. Title : Chs/SUP 简体

  85. Language : Chinese

  86. Default : Yes

  87. Forced : No


  88. Text #3

  89. ID : 5

  90. Format : PGS

  91. Codec ID : S_HDMV/PGS

  92. Codec ID/Info : Picture based subtitle format used on BDs/HD-DVDs

  93. Duration : 1 h 51 min

  94. Bit rate : 19.8 kb/s

  95. Count of elements : 2506

  96. Stream size : 15.7 MiB (0%)

  97. Title : Cht/SUP 繁体

  98. Language : Chinese

  99. Default : No

  100. Forced : No


  101. Menu

  102. 00:00:00.000 : en:第 01 章

  103. 00:02:40.702 : en:第 02 章

  104. 00:05:14.814 : en:第 03 章

  105. 00:05:35.418 : en:第 04 章

  106. 00:06:25.010 : en:第 05 章

  107. 00:10:49.107 : en:第 06 章

  108. 00:13:38.401 : en:第 07 章

  109. 00:15:43.943 : en:第 08 章

  110. 00:19:48.521 : en:第 09 章

  111. 00:22:26.178 : en:第 10 章

  112. 00:27:04.289 : en:第 11 章

  113. 00:28:17.154 : en:第 12 章

  114. 00:29:30.018 : en:第 13 章

  115. 00:31:32.766 : en:第 14 章

  116. 00:34:02.874 : en:第 15 章

  117. 00:39:53.891 : en:第 16 章

  118. 00:43:01.245 : en:第 17 章

  119. 00:45:51.082 : en:第 18 章

  120. 00:48:04.423 : en:第 19 章

  121. 00:51:28.002 : en:第 20 章

  122. 00:55:27.991 : en:第 21 章

  123. 00:58:55.198 : en:第 22 章

  124. 01:00:42.764 : en:第 23 章

  125. 01:03:32.267 : en:第 24 章

  126. 01:06:54.928 : en:第 25 章

  127. 01:11:43.633 : en:第 26 章

  128. 01:12:48.656 : en:第 27 章

  129. 01:15:47.251 : en:第 28 章

  130. 01:17:08.958 : en:第 29 章

  131. 01:19:52.162 : en:第 30 章

  132. 01:22:52.843 : en:第 31 章

  133. 01:24:26.270 : en:第 32 章

  134. 01:28:25.759 : en:第 33 章

  135. 01:30:10.238 : en:第 34 章

  136. 01:31:15.929 : en:第 35 章

  137. 01:33:37.403 : en:第 36 章

  138. 01:38:43.543 : en:第 37 章

  139. 01:39:59.577 : en:第 38 章

  140. 01:43:22.822 : en:第 39 章

  141. 01:44:59.043 : en:第 40 章

  142. 01:47:44.625 : en:第 41 章

  143. 01:48:49.523 : en:第 42 章




复制代码



文件下载


除非特别注明,本文『水手服与机关枪[简繁字幕].Sailor.Suit.and.Machine.Gun.1981.Remastered.BluRay.1080p.DTS-HD.MA5.1.x265.10bit 15.94』来源于互联网机器人自动抓取,非本站原创。 浮游电影网不对本文拥有版权,如有侵犯,请联系邮箱:fuyouu#yandex.com[#换成@]投诉。我们会在15个工作日内删除。 但烦请转载时请标明出处:“本文转载于『浮游电影网』,原文地址:https://www.fuyouu.com/14851.html

评论吧骚年!

发表你的见解   

昵称*

E-mail*(建议输入,以便收到博主回复的提示邮件)

验证码*

您可以使用eMule或eMule Mod(Windows)、aMule(Win、Linux、Mac)等软件下载eD2k链接。。
eMule收藏集(.emulecollection)文件是您选中的所有链接的列表文件。eMule可以直接下载它们。
按住SHIFT键选择可以选中多个选择框。
可用文件名和大小选择器来选择文件。
文件名选择器帮您根据文件名称或后缀来选择文件。不分大小写。
符号使用:
和:空格( )、+
不包含:-
或:|
转义:一对英文引号("");
匹配开头:^
匹配结尾:$
例如:
选中所有名称中包含有“eMule”或“0.49c”字眼,但不包含有“exe”字眼的:emule|0.49c -exe
选中所有名称的开头是“eMule”,结尾是“0.49c”的:^emule 0.49c$
选中所有名称中带有“eMule 0.49c”的(必须是“eMule 0.49c”,中间没有别的字符,不能是“eMule fake 0.49c”),需要转义:"emule 0.49c"
大小选择器帮您根据文件大小选择文件。