当前位置: 首页 >> 港台电影 >> 与龙共舞[国粤语音轨/繁体字幕].Dances.With.the.Dragon.1991.BluRay.1080p.2Audio.DTS-HD.MA.7.1.x265.10bit 12.21GB >> 正文

与龙共舞[国粤语音轨/繁体字幕].Dances.With.the.Dragon.1991.BluRay.1080p.2Audio.DTS-HD.MA.7.1.x265.10bit 12.21GB

2021年10月10日 12:11:26     电影发布:来源于网络     电影分类:港台电影     评论(0)    

与龙共舞[国粤语音轨/繁体字幕].Dances.With.the.Dragon.1991.BluRay.1080p.2Audio.DTS HD.MA.7.1.x265.10bit  12.21GB 爱情片 喜剧片 剧情片 港台电影  第1张

◎译 名 与龙共舞/Dance with the Dragon/Dances with the Dragon

◎片 名 與龍共舞

◎年 代 1991

◎产 地 中国香港

◎类 别 剧情 / 喜剧 / 爱情

◎语 言 粤语

◎上映日期 1991-12-19(中国香港)

◎豆瓣评分 7.3/10 from 16402 users

◎豆瓣链接 https://movie.douban.com/subject/1307862/

◎片 长 108 分钟

◎导 演 王晶 Jing Wong

◎编 剧 王晶 Jing Wong

◎主 演 刘德华 Andy Lau

张敏 Sharla Cheung

叶德娴 Deanie Ip

张坚庭 Alfred Cheung

翁虹 Yvonne Yung

吴孟达 Man Tat Ng

午马 Wu Ma

罗美薇 May Lo Mei-Mei

王晶 Jing Wong

单立文 Pal Sinn

黄一飞 Yut Fei Wong

李香琴 Heung Kam Lee

朱江 Kong Chu

程东 John Ching Tung

鲍汉琳 Hon Lam Bau

伍国健 Kwok-kin Ng

Min Chand Min Chand

龙彪 Biu Lung

◎标 签 刘德华 | 喜剧 | 香港 | 香港电影 | 张敏 | 爱情 | 王晶 | 吴孟达

◎简 介

龙家俊(刘德华饰)出身大富之家,事业有成,不仅是公司的董事长,还拥有数亿身价。只是感情方面一片空白,面对表妹(翁虹饰)的迷恋无动于衷,却对一个偶然在路上看到的女子月光(张敏饰)动了心。

原来月光与老妈(叶德娴饰)在大屿山经营茶餐厅,老妈有时候靠打麻将出千赚点不义之财。无 独有偶,月光又碰巧进了龙家俊的公司,成了他公司的女员工。

一次龙家俊和表妹游船河发生争执,被踢下海偶然混进偷渡客中,被警察追赶,误打误撞进了月光的家。他于是将计就计扮成大陆偷渡客在月光的小店里打起了工,而此时龙家俊的助手(吴孟达饰)正到处找他......

◎获奖情况

第11届香港电影金像奖 ?(1992)

最佳女主角(提名) 张敏

最佳女配角 叶德娴

最佳原创电影歌曲(提名) 邝美云?/?卢冠廷

  1. ##### MediaInfo ######

  2. General

  3. Unique ID : 39430621399645991770628964213379095052 (0x1DAA0FBB0D51B163B34B3A12680CDA0C)

  4. Complete name : Dances.With.the[email protected]BBQDDQ.COM.mkv

  5. Format : Matroska

  6. Format version : Version 4

  7. File size : 12.2 GiB

  8. Duration : 1 h 49 min

  9. Overall bit rate mode : Variable

  10. Overall bit rate : 16.0 Mb/s

  11. Encoded date : UTC 2021-10-08 05:49:37

  12. Writing application : mkvmerge v49.0.0 ('Sick Of Losing Soulmates') 64-bit

  13. Writing library : libebml v1.4.0 + libmatroska v1.6.1


  14. Video

  15. ID : 1

  16. Format : HEVC

  17. Format/Info : High Efficiency Video Coding

  18. Format profile : Main [email protected]@High

  19. Codec ID : V_MPEGH/ISO/HEVC

  20. Duration : 1 h 49 min

  21. Bit rate : 12.5 Mb/s

  22. Width : 1 920 pixels

  23. Height : 1 038 pixels

  24. Display aspect ratio : 1.85:1

  25. Frame rate mode : Constant

  26. Frame rate : 24.000 FPS

  27. Color space : YUV

  28. Chroma subsampling : 4:2:0

  29. Bit depth : 10 bits

  30. Bits/(Pixel*Frame) : 0.262

  31. Stream size : 9.55 GiB (78%)

  32. Title : HEVC, [email protected]@High, 24 fps @ 12540 kbps

  33. Writing library : x265 3.4+14-gd419c7152:[Windows][GCC 10.2.0][64 bit] 10bit

  34. Encoding settings : cpuid=533541111039 / frame-threads=4 / numa-pools=16 / wpp / pmode / pme / no-psnr / no-ssim / log-level=2 / input-csp=1 / input-res=1920x1038 / interlace=0 / total-frames=157015 / level-idc=51 / high-tier=1 / uhd-bd=0 / ref=5 / no-allow-non-conformance / no-repeat-headers / annexb / no-aud / no-hrd / info / hash=0 / no-temporal-layers / open-gop / min-keyint=24 / keyint=240 / gop-lookahead=0 / bframes=6 / b-adapt=2 / b-pyramid / bframe-bias=0 / rc-lookahead=40 / lookahead-slices=0 / NTMzNTQ=uuDQuD2mJt9fsCf / scenecut=40 / hist-scenecut=0 / radl=0 / no-splice / no-intra-refresh / ctu=32 / min-cu-size=8 / no-rect / no-amp / max-tu-size=32 / tu-inter-depth=3 / tu-intra-depth=3 / limit-tu=4 / rdoq-level=2 / dynamic-rd=0.00 / no-ssim-rd / signhide / no-tskip / nr-intra=0 / nr-inter=0 / no-constrained-intra / no-strong-intra-smoothing / max-merge=4 / limit-refs=1 / limit-modes / me=3 / subme=4 / merange=25 / temporal-mvp / no-frame-dup / no-hme / weightp / weightb / no-analyze-src-pics / deblock=-3:-3 / no-sao / no-sao-non-deblock / rd=6 / selective-sao=0 / no-early-skip / rskip / no-fast-intra / no-tskip-fast / no-cu-lossless / b-intra / no-splitrd-skip / rdpenalty=0 / psy-rd=2.00 / psy-rdoq=1.00 / no-rd-refine / no-lossless / cbqpoffs=0 / crqpoffs=0 / rc=crf / crf=17.0 / qcomp=0.65 / qpstep=4 / stats-write=0 / stats-read=0 / vbv-maxrate=80000 / vbv-bufsize=80000 / vbv-init=0.9 / crf-max=0.0 / crf-min=0.0 / ipratio=1.40 / pbratio=1.30 / aq-mode=2 / aq-strength=0.85 / cutree / zone-count=0 / no-strict-cbr / qg-size=32 / no-rc-grain / qpmax=69 / qpmin=0 / no-const-vbv / sar=1 / overscan=0 / videoformat=5 / range=0 / colorprim=1 / transfer=1 / colormatrix=1 / chromaloc=0 / display-window=0 / cll=0,0 / min-luma=0 / max-luma=1023 / log2-max-poc-lsb=8 / vui-timing-info / vui-hrd-info / slices=1 / no-opt-qp-pps / no-opt-ref-list-length-pps / no-multi-pass-opt-rps / scenecut-bias=0.05 / hist-threshold=0.03 / no-opt-cu-delta-qp / no-aq-motion / no-hdr10 / no-hdr10-opt / no-dhdr10-opt / no-idr-recovery-sei / analysis-reuse-level=0 / analysis-save-reuse-level=0 / analysis-load-reuse-level=0 / scale-factor=0 / refine-intra=0 / refine-inter=0 / refine-mv=1 / refine-ctu-distortion=0 / no-limit-sao / ctu-info=0 / no-lowpass-dct / refine-analysis-type=0 / copy-pic=1 / max-ausize-factor=1.0 / no-dynamic-refine / no-single-sei / no-hevc-aq / no-svt / no-field / qp-adaptation-range=1.00 / no-scenecut-aware-qpconformance-window-offsets / right=0 / bottom=0 / NTMzNTQ= / decoder-max-rate=0

  35. Language : English

  36. Default : Yes

  37. Forced : No

  38. Color range : Limited

  39. Color primaries : BT.709

  40. Transfer characteristics : BT.709

  41. Matrix coefficients : BT.709


  42. Audio #1

  43. ID : 2

  44. Format : DTS XLL

  45. Format/Info : Digital Theater Systems

  46. Commercial name : DTS-HD Master Audio

  47. Codec ID : A_DTS

  48. Duration : 1 h 48 min

  49. Bit rate mode : Variable

  50. Bit rate : 2 767 kb/s

  51. Channel(s) : 8 channels

  52. Channel layout : C L R LFE Lb Rb Lss Rss

  53. Sampling rate : 48.0 kHz

  54. Frame rate : 93.750 FPS (512 SPF)

  55. Bit depth : 16 bits

  56. Compression mode : Lossless

  57. Stream size : 2.10 GiB (17%)

  58. Title : Cantonese DTS-HD Master Audio 7.1 @ 2763 kbps

  59. Language : Chinese

  60. Default : Yes

  61. Forced : No


  62. Audio #2

  63. ID : 3

  64. Format : AC-3

  65. Format/Info : Audio Coding 3

  66. Commercial name : Dolby Digital

  67. Codec ID : A_AC3

  68. Duration : 1 h 48 min

  69. Bit rate mode : Constant

  70. Bit rate : 640 kb/s

  71. Channel(s) : 6 channels

  72. Channel layout : L R C LFE Ls Rs

  73. Sampling rate : 48.0 kHz

  74. Frame rate : 31.250 FPS (1536 SPF)

  75. Compression mode : Lossy

  76. Stream size : 498 MiB (4%)

  77. Title : Mandarin Dolby Digital Audio 5.1 @ 640 kbps

  78. Language : Chinese

  79. Service kind : Complete Main

  80. Default : No

  81. Forced : No


  82. Text #1

  83. ID : 4

  84. Format : PGS

  85. Codec ID : S_HDMV/PGS

  86. Codec ID/Info : Picture based subtitle format used on BDs/HD-DVDs

  87. Duration : 1 h 46 min

  88. Bit rate : 47.1 kb/s

  89. Count of elements : 4210

  90. Stream size : 35.9 MiB (0%)

  91. Title : Cht/SUP 原盘繁体

  92. Language : Chinese

  93. Default : Yes

  94. Forced : No


  95. Text #2

  96. ID : 5

  97. Format : PGS

  98. Codec ID : S_HDMV/PGS

  99. Codec ID/Info : Picture based subtitle format used on BDs/HD-DVDs

  100. Duration : 1 h 46 min

  101. Bit rate : 42.4 kb/s

  102. Count of elements : 4210

  103. Stream size : 32.4 MiB (0%)

  104. Title : Eng/SUP

  105. Language : English

  106. Default : No

  107. Forced : No


  108. Menu

  109. 00:00:00.000 : en:第 01 章

  110. 00:05:08.333 : en:第 02 章

  111. 00:08:22.583 : en:第 03 章

  112. 00:14:20.083 : en:第 04 章

  113. 00:19:57.583 : en:第 05 章

  114. 00:26:20.583 : en:第 06 章

  115. 00:31:09.625 : en:第 07 章

  116. 00:35:50.750 : en:第 08 章

  117. 00:42:11.583 : en:第 09 章

  118. 00:48:55.417 : en:第 10 章

  119. 00:54:41.417 : en:第 11 章

  120. 01:02:50.583 : en:第 12 章

  121. 01:06:43.917 : en:第 13 章

  122. 01:11:02.000 : en:第 14 章

  123. 01:17:22.292 : en:第 15 章

  124. 01:22:01.167 : en:第 16 章

  125. 01:27:19.875 : en:第 17 章

  126. 01:31:19.292 : en:第 18 章

  127. 01:36:39.333 : en:第 19 章

  128. 01:44:12.542 : en:第 20 章




复制代码



文件下载


除非特别注明,本文『与龙共舞[国粤语音轨/繁体字幕].Dances.With.the.Dragon.1991.BluRay.1080p.2Audio.DTS-HD.MA.7.1.x265.10bit 12.21GB』来源于互联网机器人自动抓取,非本站原创。 浮游电影网不对本文拥有版权,如有侵犯,请联系邮箱:fuyouu#yandex.com[#换成@]投诉。我们会在15个工作日内删除。 但烦请转载时请标明出处:“本文转载于『浮游电影网』,原文地址:https://www.fuyouu.com/14849.html

评论吧骚年!

发表你的见解   

昵称*

E-mail*(建议输入,以便收到博主回复的提示邮件)

验证码*

您可以使用eMule或eMule Mod(Windows)、aMule(Win、Linux、Mac)等软件下载eD2k链接。。
eMule收藏集(.emulecollection)文件是您选中的所有链接的列表文件。eMule可以直接下载它们。
按住SHIFT键选择可以选中多个选择框。
可用文件名和大小选择器来选择文件。
文件名选择器帮您根据文件名称或后缀来选择文件。不分大小写。
符号使用:
和:空格( )、+
不包含:-
或:|
转义:一对英文引号("");
匹配开头:^
匹配结尾:$
例如:
选中所有名称中包含有“eMule”或“0.49c”字眼,但不包含有“exe”字眼的:emule|0.49c -exe
选中所有名称的开头是“eMule”,结尾是“0.49c”的:^emule 0.49c$
选中所有名称中带有“eMule 0.49c”的(必须是“eMule 0.49c”,中间没有别的字符,不能是“eMule fake 0.49c”),需要转义:"emule 0.49c"
大小选择器帮您根据文件大小选择文件。