当前位置: 首页 >> 欧美电影 >> 潜龙轰天3:野兽之腹[简繁字幕].Belly.Of.The.Beast.2003.BluRay.1080p.DTS-HD.MA.2.0.x265.10bit 8.27GB >> 正文

潜龙轰天3:野兽之腹[简繁字幕].Belly.Of.The.Beast.2003.BluRay.1080p.DTS-HD.MA.2.0.x265.10bit 8.27GB

2021年10月10日 12:10:20     电影发布:来源于网络     电影分类:欧美电影     评论(0)    

潜龙轰天3:野兽之腹[简繁字幕].Belly.Of.The.Beast.2003.BluRay.1080p.DTS HD.MA.2.0.x265.10bit 8.27GB 动作片 欧美电影  第1张

◎译 名 潜龙轰天3:野兽之腹/潜龙轰天3野兽之腹

◎片 名 Belly of the Beast

◎年 代 2003

◎产 地 加拿大,中国香港,英国

◎类 别 动作

◎语 言 英语,泰语

◎上映日期 2003-12-30

◎豆瓣评分 5.7/10 from 752 users

◎豆瓣链接 https://movie.douban.com/subject/1308601/

◎片 长 91 分钟

◎导 演 程小东 Siu-Tung Ching

◎编 剧 James Townsend James Townsend / 史蒂文·席格 Steven Seagal

◎主 演 伊恩·罗比森 Ian Robison

查克利·彦纳姆 Shahkrit Yamnarm

文峰 Byron Mann

彭拍·瓦奇拉班桌 Pongpat Wachirabunjong

Elidh MacQueen Elidh MacQueen

科林·斯廷顿 Colin Stinton

史蒂文·席格 Steven Seagal

卢淑仪 Monica Lo

莎拉·玛卢库·莱恩 Sara Malakul Lane

Andy Adam Andy Adam

汤姆·吴 Tom Wu

◎标 签 动作 | 美国 | StevenSeagal | 史蒂文·席格 | 程小东 | 美国电影 | 特工 | 加拿大

◎简 介

杰克(史蒂文·席格 Steven Seagal 饰)曾是一位精明强干的CIA特工,一场意外让他和好友孙迪(文峰 Byron Mann 饰)双双选择辞职,孙迪看破了红尘选择出家为僧,而杰克亦因为妻子的去世而背负上了抚养女儿杰西卡(莎拉·玛卢库·莱恩 Sarah Malukul Lane 饰)的沉重责任。

一晃眼十年过去,杰西卡长大成人出落得亭亭玉立,而杰克也早已经习惯了安逸稳定的生活,曾经的腥风血雨已经仿佛是一个模糊的梦了。某日,杰克带着杰西卡和她的好友莎拉(Elidh MacQueen 饰)前往泰国度假,哪知道杰西卡和莎拉竟然被当地的恐怖组织绑架,用以要挟美国释放20名他们的同党。悲愤之中,杰克决定依靠自己的力量同恐怖分子们展开较量。

  1. ##### MediaInfo ######

  2. General

  3. Unique ID : 293360622887703514485210671580496389687 (0xDCB33368703457F39A75B4714475E637)

  4. Complete name : Bell[email protected]BBQDDQ.COM.mkv

  5. Format : Matroska

  6. Format version : Version 4

  7. File size : 8.27 GiB

  8. Duration : 1 h 31 min

  9. Overall bit rate mode : Variable

  10. Overall bit rate : 13.0 Mb/s

  11. Encoded date : UTC 2021-10-08 03:46:55

  12. Writing application : mkvmerge v49.0.0 ('Sick Of Losing Soulmates') 64-bit

  13. Writing library : libebml v1.4.0 + libmatroska v1.6.1


  14. Video

  15. ID : 1

  16. Format : HEVC

  17. Format/Info : High Efficiency Video Coding

  18. Format profile : Main [email protected]@High

  19. Codec ID : V_MPEGH/ISO/HEVC

  20. Duration : 1 h 31 min

  21. Bit rate : 11.9 Mb/s

  22. Width : 1 920 pixels

  23. Height : 1 040 pixels

  24. Display aspect ratio : 1.85:1

  25. Frame rate mode : Constant

  26. Frame rate : 23.976 (24000/1001/53354) FPS

  27. Color space : YUV

  28. Chroma subsampling : 4:2:0

  29. Bit depth : 10 bits

  30. Bits/(Pixel*Frame) : 0.248

  31. Stream size : 7.56 GiB (91%)

  32. Title : HEVC, [email protected]@High, 24/1.001 fps @ 11855 kbps

  33. Writing library : x265 3.4+14-gd419c7152:[Windows][GCC 10.2.0][64 bit] 10bit

  34. Encoding settings : cpuid=533541111039 / frame-threads=4 / numa-pools=20 / wpp / pmode / pme / no-psnr / no-ssim / log-level=2 / input-csp=1 / input-res=1920x1040 / interlace=0 / total-frames=131352 / level-idc=51 / high-tier=1 / uhd-bd=0 / ref=5 / no-allow-non-conformance / no-repeat-headers / annexb / no-aud / no-hrd / info / hash=0 / no-temporal-layers / open-gop / min-keyint=24 / keyint=240 / gop-lookahead=0 / bframes=6 / b-adapt=2 / b-pyramid / bframe-bias=0 / rc-lookahead=40 / lookahead-slices=0 / NTMzNTQ=uuDQuD2mJt9fsCf / scenecut=40 / hist-scenecut=0 / radl=0 / no-splice / no-intra-refresh / ctu=32 / min-cu-size=8 / no-rect / no-amp / max-tu-size=32 / tu-inter-depth=3 / tu-intra-depth=3 / limit-tu=4 / rdoq-level=2 / dynamic-rd=0.00 / no-ssim-rd / signhide / no-tskip / nr-intra=0 / nr-inter=0 / no-constrained-intra / no-strong-intra-smoothing / max-merge=4 / limit-refs=1 / limit-modes / me=3 / subme=4 / merange=25 / temporal-mvp / no-frame-dup / no-hme / weightp / weightb / no-analyze-src-pics / deblock=-3:-3 / no-sao / no-sao-non-deblock / rd=6 / selective-sao=0 / no-early-skip / rskip / no-fast-intra / no-tskip-fast / no-cu-lossless / b-intra / no-splitrd-skip / rdpenalty=0 / psy-rd=2.00 / psy-rdoq=1.00 / no-rd-refine / no-lossless / cbqpoffs=0 / crqpoffs=0 / rc=crf / crf=18.5 / qcomp=0.65 / qpstep=4 / stats-write=0 / stats-read=0 / vbv-maxrate=80000 / vbv-bufsize=80000 / vbv-init=0.9 / crf-max=0.0 / crf-min=0.0 / ipratio=1.40 / pbratio=1.30 / aq-mode=2 / aq-strength=0.85 / cutree / zone-count=0 / no-strict-cbr / qg-size=32 / no-rc-grain / qpmax=69 / qpmin=0 / no-const-vbv / sar=1 / overscan=0 / videoformat=5 / range=0 / colorprim=1 / transfer=1 / colormatrix=1 / chromaloc=0 / display-window=0 / cll=0,0 / min-luma=0 / max-luma=1023 / log2-max-poc-lsb=8 / vui-timing-info / vui-hrd-info / slices=1 / no-opt-qp-pps / no-opt-ref-list-length-pps / no-multi-pass-opt-rps / scenecut-bias=0.05 / hist-threshold=0.03 / no-opt-cu-delta-qp / no-aq-motion / no-hdr10 / no-hdr10-opt / no-dhdr10-opt / no-idr-recovery-sei / analysis-reuse-level=0 / analysis-save-reuse-level=0 / analysis-load-reuse-level=0 / scale-factor=0 / refine-intra=0 / refine-inter=0 / refine-mv=1 / refine-ctu-distortion=0 / no-limit-sao / ctu-info=0 / no-lowpass-dct / refine-analysis-type=0 / copy-pic=1 / max-ausize-factor=1.0 / no-dynamic-refine / no-single-sei / no-hevc-aq / no-svt / no-field / qp-adaptation-range=1.00 / no-scenecut-aware-qpconformance-window-offsets / right=0 / bottom=0 / NTMzNTQ= / decoder-max-rate=0

  35. Language : English

  36. Default : Yes

  37. Forced : No

  38. Color range : Limited

  39. Color primaries : BT.709

  40. Transfer characteristics : BT.709

  41. Matrix coefficients : BT.709


  42. Audio

  43. ID : 2

  44. Format : DTS XLL

  45. Format/Info : Digital Theater Systems

  46. Commercial name : DTS-HD Master Audio

  47. Codec ID : A_DTS

  48. Duration : 1 h 31 min

  49. Bit rate mode : Variable

  50. Bit rate : 1 087 kb/s

  51. Channel(s) : 2 channels

  52. Channel layout : L R

  53. Sampling rate : 48.0 kHz

  54. Frame rate : 93.750 FPS (512 SPF)

  55. Bit depth : 16 bits

  56. Compression mode : Lossless

  57. Stream size : 710 MiB (8%)

  58. Title : English DTS-HD Master Audio 2.0 @ 1088 kbps

  59. Language : English

  60. Default : Yes

  61. Forced : No


  62. Text #1

  63. ID : 3

  64. Format : PGS

  65. Codec ID : S_HDMV/PGS

  66. Codec ID/Info : Picture based subtitle format used on BDs/HD-DVDs

  67. Duration : 1 h 27 min

  68. Bit rate : 11.9 kb/s

  69. Count of elements : 1230

  70. Stream size : 7.45 MiB (0%)

  71. Title : Chs/SUP 简体

  72. Language : Chinese

  73. Default : Yes

  74. Forced : No


  75. Text #2

  76. ID : 4

  77. Format : PGS

  78. Codec ID : S_HDMV/PGS

  79. Codec ID/Info : Picture based subtitle format used on BDs/HD-DVDs

  80. Duration : 1 h 27 min

  81. Bit rate : 12.3 kb/s

  82. Count of elements : 1230

  83. Stream size : 7.65 MiB (0%)

  84. Title : Cht/SUP 繁体

  85. Language : Chinese

  86. Default : No

  87. Forced : No




复制代码



文件下载


除非特别注明,本文『潜龙轰天3:野兽之腹[简繁字幕].Belly.Of.The.Beast.2003.BluRay.1080p.DTS-HD.MA.2.0.x265.10bit 8.27GB』来源于互联网机器人自动抓取,非本站原创。 浮游电影网不对本文拥有版权,如有侵犯,请联系邮箱:fuyouu#yandex.com[#换成@]投诉。我们会在15个工作日内删除。 但烦请转载时请标明出处:“本文转载于『浮游电影网』,原文地址:https://www.fuyouu.com/14848.html

评论吧骚年!

发表你的见解   

昵称*

E-mail*(建议输入,以便收到博主回复的提示邮件)

验证码*

您可以使用eMule或eMule Mod(Windows)、aMule(Win、Linux、Mac)等软件下载eD2k链接。。
eMule收藏集(.emulecollection)文件是您选中的所有链接的列表文件。eMule可以直接下载它们。
按住SHIFT键选择可以选中多个选择框。
可用文件名和大小选择器来选择文件。
文件名选择器帮您根据文件名称或后缀来选择文件。不分大小写。
符号使用:
和:空格( )、+
不包含:-
或:|
转义:一对英文引号("");
匹配开头:^
匹配结尾:$
例如:
选中所有名称中包含有“eMule”或“0.49c”字眼,但不包含有“exe”字眼的:emule|0.49c -exe
选中所有名称的开头是“eMule”,结尾是“0.49c”的:^emule 0.49c$
选中所有名称中带有“eMule 0.49c”的(必须是“eMule 0.49c”,中间没有别的字符,不能是“eMule fake 0.49c”),需要转义:"emule 0.49c"
大小选择器帮您根据文件大小选择文件。