当前位置: 首页 >> 港台电影 >> 追龙[国粤语配音/中文字幕].Chasing.the.Dragon.2017.1080p.BluRay.x265.10bit.DTS.2Audio 9.66GB >> 正文

追龙[国粤语配音/中文字幕].Chasing.the.Dragon.2017.1080p.BluRay.x265.10bit.DTS.2Audio 9.66GB

2021年10月10日 12:02:45     电影发布:来源于网络     电影分类:港台电影     评论(0)    

追龙[国粤语配音/中文字幕].Chasing.the.Dragon.2017.1080p.BluRay.x265.10bit.DTS.2Audio 9.66GB 犯罪片 动作片 港台电影  第1张

◎译 名 追龙/Chasing the Dragon/卧虎2/跛豪

◎片 名 追龍

◎年 代 2017

◎产 地 中国香港,中国大陆

◎类 别 动作 / 犯罪

◎语 言 粤语,汉语普通话

◎上映日期 2017-09-30(中国大陆)

◎豆瓣评分 7.2/10 from 312614 users

◎豆瓣链接 https://movie.douban.com/subject/26425068/

◎片 长 128分钟

◎导 演 王晶 Jing Wong / 关智耀 Jason Kwan Chi-Yiu

◎编 剧 王晶 Jing Wong / 吕冠南 Koon-Nam Lui / 叶铭浩 Ming-Ho Yip

◎主 演 甄子丹 Donnie Yen

刘德华 Andy Lau

姜皓文 Philip Keung Ho-Man

郑则仕 Kent Cheng

刘浩龙 Wilfred Lau

汤镇业 Ken Tong

喻亢 Kang Yu

胡然 Michelle Hu

徐冬冬 Dongdong Xu

黄日华 Felix Wong

陈惠敏 Wai-Man Chan

周励淇 Niki Chow

吴毅将 Ben Ng

伍允龙 Philip Ng

易宇航 Julian Gaertner

林靖文 Sophia Lam

狼森 Philippe Joly

姚文基 Man-kei Yiu

叶铭浩 Ming-Ho Yip

李日升 Jonathan Yat-Sing Lee

王俊棠 Ricky Wong Chun-Tong

尹子维 Terence Yin

夏晴 Qing Xia

郑恕峰 Shu Fung Cheng

黄竣锋 Jason Wong

周俊伟 Lawrence Chou

麦克·里德 Mike Leeder

韩昕怡 Xinyi Han

叶朗钲 Mike Yip

曾江 Kenneth Tsang

聂安达 Anders Nelson

◎标 签 香港 | 黑帮 | 犯罪 | 警匪 | 动作 | 传记 | 2017 | 中国

◎简 介

20世纪60年代,中国香港鱼龙混杂,混乱不堪。英国人治下的皇家警察贪婪无度,甚至与黑道相互勾结,搜刮民脂。年轻探长雷洛(刘德华 饰)踌躇满志,小心周旋在英国人和华人上司之间,并瞅准一切机会攀登权力山峰。在某次火并事件中,雷洛看中了敢打敢杀的伍世豪(甄子丹 饰)。来自南洋的伍世豪义字当头,情愿为兄弟两肋插刀。他凭借一股闯劲儿在黑道打出自己的位置,同时借着与雷洛相互帮衬的势头而声名鹊起。最终,刀头舔血的雷洛和伍世豪共同成为分别执掌白道和黑道的重量级人物。

而在这一过程中,这对兄弟也渐渐发生分歧。当风暴来临之际,一切即将变化……

◎获奖情况

第37届香港电影金像奖 ?(2018)

最佳电影(提名)

最佳摄影 关智耀

最佳剪接 李嘉荣

最佳美术指导(提名) 张英华

最佳服装造型设计(提名) 余家安?/?奚仲文?/?郭淑敏

最佳动作设计(提名) 喻亢?/?严华?/?元彬

第4届豆瓣电影年度榜单 ?(2017)

10月最受关注电影(提名)

  1. ##### MediaInfo ######

  2. General

  3. Unique ID : 115091014481665297455772468243636002234 (0x5695B91DDE7547983123CAE8C98D9DBA)

  4. Complete name : C[email protected]BBQDDQ.COM.mkv

  5. Format : Matroska

  6. Format version : Version 4

  7. File size : 9.66 GiB

  8. Duration : 2 h 8 min

  9. Overall bit rate : 10.8 Mb/s

  10. Movie name : Chasing the Dragon

  11. Encoded date : UTC 2021-10-08 16:00:39

  12. Writing application : mkvmerge v61.0.0 ('So') 64-bit

  13. Writing library : libebml v1.4.2 + libmatroska v1.6.4

  14. Cover : Yes

  15. Attachments : cover.jpg


  16. Video

  17. ID : 1

  18. Format : HEVC

  19. Format/Info : High Efficiency Video Coding

  20. Format profile : Main [email protected]@Main

  21. Codec ID : V_MPEGH/ISO/HEVC

  22. Duration : 2 h 8 min

  23. Bit rate : 7 696 kb/s

  24. Width : 1 920 pixels

  25. Height : 804 pixels

  26. Display aspect ratio : 2.40:1

  27. Frame rate mode : Constant

  28. Frame rate : 24.000 FPS

  29. Color space : YUV

  30. Chroma subsampling : 4:2:0

  31. Bit depth : 10 bits

  32. Bits/(Pixel*Frame) : 0.208

  33. Stream size : 6.92 GiB (72%)

  34. Writing library : x265 3.5+2-g2b25c9ba0+45:[Windows][GCC 10.2.0][64 bit] Yuuki 10bit+8bit+12bit

  35. Encoding settings : rc=crf / crf=22.5000 / qcomp=0.60 / qpstep=4 / stats-write=0 / stats-read=0 / no-lossless / no-cu-lossless / aq-mode=3 / aq-strength=0.90 / cbqpoffs=0 / crqpoffs=0 / ipratio=1.40 / pbratio=1.30 / psy-rd=2.00 / psy-rdoq=0.00 / deblock=0:0 / ref=6 / limit-refs=1 / no-limit-modes / bframes=8 / b-adapt=2 / bframe-bias=0 / b-pyramid / b-intra / weightp / weightb / min-keyint=24 / max-keyint=240 / rc-lookahead=24 / gop-lookahead=0 / NTMzNTQ=uuDQuD2mJt9fsCf / scenecut=40 / hist-scenecut=0 / radl=0 / max-cu-size=64 / min-cu-size=8 / me=3 / subme=7 / merange=48 / rdoq-level=0 / rd=4 / rdpenalty=0 / dynamic-rd=0.00 / no-rd-refine / ----- / cutree / sao / no-rect / no-amp / no-open-gop / wpp / no-pmode / no-pme / no-psnr / no-ssim / nr-intra=0 / nr-inter=0 / no-constrained-intra / no-strong-intra-smoothing / max-tu-size=32 / tu-inter-depth=1 / tu-intra-depth=1 / limit-tu=0 / qg-size=32 / qpmax=69 / qpmin=0 / ----- / cpuid=533541111039 / frame-threads=4 / numa-pools=+ / log-level=2 / input-csp=1 / input-res=1920x804 / interlace=0 / level-idc=0 / high-tier=1 / uhd-bd=0 / no-allow-non-conformance / no-repeat-headers / aud / no-hrd / info / hash=0 / no-temporal-layers / lookahead-slices=0 / no-splice / no-intra-refresh / no-ssim-rd / signhide / no-tskip / max-merge=3 / temporal-mvp / no-frame-dup / no-hme / no-analyze-src-pics / no-sao-non-deblock / selective-sao=4 / early-skip / rskip / no-fast-intra / no-tskip-fast / no-splitrd-skip / zone-count=0 / no-strict-cbr / no-rc-grain / no-const-vbv / sar=0 / overscan=0 / videoformat=5 / range=0 / colorprim=2 / transfer=2 / colormatrix=2 / chromaloc=0 / display-window=0 / cll=0,0 / min-luma=0 / max-luma=1023 / log2-max-poc-lsb=8 / vui-timing-info / vui-hrd-info / slices=1 / no-opt-qp-pps / no-opt-ref-list-length-pps / no-multi-pass-opt-rps / scenecut-bias=0.05 / hist-threshold=0.03 / no-opt-cu-delta-qp / no-aq-motion / no-hdr10 / no-hdr10-opt / no-dhdr10-opt / no-idr-recovery-sei / analysis-reuse-level=0 / analysis-save-reuse-level=0 / analysis-load-reuse-level=0 / scale-factor=0 / refine-intra=0 / refine-inter=0 / refine-mv=1 / refine-ctu-distortion=0 / no-limit-sao / ctu-info=0 / no-lowpass-dct / refine-analysis-type=0 / copy-pic=1 / max-ausize-factor=1.0 / no-dynamic-refine / no-single-sei / no-hevc-aq / no-svt / no-field / qp-adaptation-range=1.00 / scenecut-aware-qp=0conformance-window-offsets / right=0 / bottom=0 / NTMzNTQ= / decoder-max-rate=0 / no-vbv-live-multi-pass

  36. Default : Yes

  37. Forced : No


  38. Audio #1

  39. ID : 2

  40. Format : DTS

  41. Format/Info : Digital Theater Systems

  42. Codec ID : A_DTS

  43. Duration : 2 h 8 min

  44. Bit rate mode : Constant

  45. Bit rate : 1 510 kb/s

  46. Channel(s) : 6 channels

  47. Channel layout : C L R Ls Rs LFE

  48. Sampling rate : 48.0 kHz

  49. Frame rate : 93.750 FPS (512 SPF)

  50. Bit depth : 24 bits

  51. Compression mode : Lossy

  52. Stream size : 1.36 GiB (14%)

  53. Title : Cantonese

  54. Language : Chinese

  55. Default : Yes

  56. Forced : No


  57. Audio #2

  58. ID : 3

  59. Format : DTS

  60. Format/Info : Digital Theater Systems

  61. Codec ID : A_DTS

  62. Duration : 2 h 8 min

  63. Bit rate mode : Constant

  64. Bit rate : 1 510 kb/s

  65. Channel(s) : 6 channels

  66. Channel layout : C L R Ls Rs LFE

  67. Sampling rate : 48.0 kHz

  68. Frame rate : 93.750 FPS (512 SPF)

  69. Bit depth : 24 bits

  70. Compression mode : Lossy

  71. Stream size : 1.36 GiB (14%)

  72. Title : Mandarin

  73. Language : Chinese

  74. Default : No

  75. Forced : No


  76. Text #1

  77. ID : 4

  78. ID in the original source medium : 4609 (0x1201)

  79. Format : PGS

  80. Muxing mode : zlib

  81. Codec ID : S_HDMV/PGS

  82. Codec ID/Info : Picture based subtitle format used on BDs/HD-DVDs

  83. Duration : 2 h 3 min

  84. Bit rate : 31.9 kb/s

  85. Count of elements : 3042

  86. Stream size : 28.3 MiB (0%)

  87. Title : chs

  88. Language : Chinese

  89. Default : Yes

  90. Forced : No

  91. Original source medium : Blu-ray


  92. Text #2

  93. ID : 5

  94. ID in the original source medium : 4608 (0x1200)

  95. Format : PGS

  96. Muxing mode : zlib

  97. Codec ID : S_HDMV/PGS

  98. Codec ID/Info : Picture based subtitle format used on BDs/HD-DVDs

  99. Duration : 2 h 3 min

  100. Bit rate : 32.5 kb/s

  101. Count of elements : 3031

  102. Stream size : 28.7 MiB (0%)

  103. Title : cht

  104. Language : Chinese

  105. Default : No

  106. Forced : No

  107. Original source medium : Blu-ray


  108. Text #3

  109. ID : 6

  110. ID in the original source medium : 4610 (0x1202)

  111. Format : PGS

  112. Muxing mode : zlib

  113. Codec ID : S_HDMV/PGS

  114. Codec ID/Info : Picture based subtitle format used on BDs/HD-DVDs

  115. Duration : 2 h 4 min

  116. Bit rate : 44.3 kb/s

  117. Count of elements : 3051

  118. Stream size : 39.3 MiB (0%)

  119. Title : eng

  120. Language : English

  121. Default : No

  122. Forced : No

  123. Original source medium : Blu-ray


  124. Menu

  125. 00:00:00.000 : 第 01 章

  126. 00:10:48.000 : 第 02 章

  127. 00:22:40.083 : 第 03 章

  128. 00:32:18.541 : 第 04 章

  129. 00:44:12.583 : 第 05 章

  130. 00:53:58.208 : 第 06 章

  131. 01:04:25.916 : 第 07 章

  132. 01:16:16.458 : 第 08 章

  133. 01:24:22.333 : 第 09 章

  134. 01:36:48.708 : 第 10 章

  135. 01:48:51.250 : 第 11 章

  136. 01:56:12.291 : 第 12 章


文件下载


除非特别注明,本文『追龙[国粤语配音/中文字幕].Chasing.the.Dragon.2017.1080p.BluRay.x265.10bit.DTS.2Audio 9.66GB』来源于互联网机器人自动抓取,非本站原创。 浮游电影网不对本文拥有版权,如有侵犯,请联系邮箱:fuyouu#yandex.com[#换成@]投诉。我们会在15个工作日内删除。 但烦请转载时请标明出处:“本文转载于『浮游电影网』,原文地址:https://www.fuyouu.com/14843.html

评论吧骚年!

发表你的见解   

昵称*

E-mail*(建议输入,以便收到博主回复的提示邮件)

验证码*

您可以使用eMule或eMule Mod(Windows)、aMule(Win、Linux、Mac)等软件下载eD2k链接。。
eMule收藏集(.emulecollection)文件是您选中的所有链接的列表文件。eMule可以直接下载它们。
按住SHIFT键选择可以选中多个选择框。
可用文件名和大小选择器来选择文件。
文件名选择器帮您根据文件名称或后缀来选择文件。不分大小写。
符号使用:
和:空格( )、+
不包含:-
或:|
转义:一对英文引号("");
匹配开头:^
匹配结尾:$
例如:
选中所有名称中包含有“eMule”或“0.49c”字眼,但不包含有“exe”字眼的:emule|0.49c -exe
选中所有名称的开头是“eMule”,结尾是“0.49c”的:^emule 0.49c$
选中所有名称中带有“eMule 0.49c”的(必须是“eMule 0.49c”,中间没有别的字符,不能是“eMule fake 0.49c”),需要转义:"emule 0.49c"
大小选择器帮您根据文件大小选择文件。