当前位置: 首页 >> 国产电影 >> 狄仁杰之通天帝国[国粤语配音/中文字幕].Detective.Dee.And.2010.1080p.BluRay.x265.10bit.DTS.2Audio 8.82GB >> 正文

狄仁杰之通天帝国[国粤语配音/中文字幕].Detective.Dee.And.2010.1080p.BluRay.x265.10bit.DTS.2Audio 8.82GB

2021年10月10日 12:01:00     电影发布:来源于网络     电影分类:国产电影     评论(0)    

狄仁杰之通天帝国[国粤语配音/中文字幕].Detective.Dee.And.2010.1080p.BluRay.x265.10bit.DTS.2Audio 8.82GB 古装片 悬疑片 动作片 国产电影  第1张

◎译 名 Detective Dee and the Mystery of the Phantom Flame/通天神探狄仁杰

◎片 名 狄仁杰之通天帝国

◎年 代 2010

◎产 地 中国大陆,中国香港

◎类 别 动作 / 悬疑 / 古装

◎语 言 汉语普通话,粤语

◎上映日期 2010-09-05(威尼斯电影节) / 2010-09-29(中国大陆)

◎豆瓣评分 6.6/10 from 248201 users

◎豆瓣链接 https://movie.douban.com/subject/3412830/

◎片 长 123分钟

◎导 演 徐克 Hark Tsui

◎编 剧 张家鲁 Chia-lu Chang

◎主 演 刘德华 Andy Lau

刘嘉玲 Carina Lau

李冰冰 Bingbing Li

梁家辉 Tony Leung

邓超 Chao Deng

泰迪·罗宾 Teddy Robin

吴耀汉 Richard Ng

姚橹 Lu Yao

刘金山 Jinshan Liu

马今 Jean-Michel Casanova

秦焰 Yan Qin

王德顺 Deshun Wang

赵家林 Jialin Zhao

何晟铭 Shengming He

蒋燕鸣 Yanming Jiang

黄永刚 Yonggang Huang

陈晓 Xiao Chen

Sos Haroyan Sos Haroyan

符荷晴 Liz Veronica Foo

徐楠 Nan Xu

柴进 Jin Chai

张家鲁 Chia-lu Chang

刘家瑞 Nathan Liu

◎标 签 香港 | 悬疑 | 动作 | 古装 | 武侠 | 2010 | 中国 | 电影

◎简 介

http://site.douban.com/108331/ 狄仁杰之通天帝国豆瓣小站

武则天(刘嘉玲 饰)登基之前,修建了高达三百尺的通天浮屠。竣工之前,却先后发生命案:工部侍郎贾颐、大理寺卿薛勇(刘金山 饰)相继自焚而亡。监工沙陀(梁家辉 饰)称此二人因动通天柱之灵符而遭天谴。大理寺少卿裴东来(邓超 饰)、武后贴身侍卫上官静儿(李冰冰 饰)奉命调查,但国师陆离却指点此案需狄仁杰(刘德华 饰)查办。武后下旨,入狱八年的狄仁杰获释任钦差负责此案,却遭刺客袭击。所幸其早有防备,加之上官静儿陪护,得以脱身。狄仁杰排除了怀疑对象琅琊王李宵(姚鲁 饰),并拒绝了其对抗武后之约。狄仁杰发现,死者身中赤焰金龟之毒,遂带领裴东来、上官静儿夜访鬼市,希望从昔日太医汪驴口中获得真相,不想遭遇埋伏,疑似国师显身,杀手集结,令三人难以脱身。然而,一番缠斗之后,案情似乎有了水落石出的转机……

◎获奖情况

第67届威尼斯电影节 ?(2010)

金狮奖(提名) 徐克

第47届台北金马影展 ?(2010)

金马奖最佳美术设计(提名) 赵崇邦

金马奖最佳造型设计(提名) 余家安

金马奖最佳动作设计(提名) 洪金宝

金马奖最佳音效(提名) 王丹戎?/?赵楠

金马奖最佳视觉效果 李庸基?/?南相宇

第30届香港电影金像奖 ?(2011)

最佳电影(提名)

最佳导演 徐克

最佳女主角 刘嘉玲

最佳男配角(提名) 梁家辉?/?邓超

最佳摄影(提名) 陈楚强?/?陈志英

最佳剪接(提名) 邱志伟

最佳美术指导 赵崇邦

最佳服装造型设计 余家安

最佳动作设计(提名) 董玮

最佳原创电影音乐(提名) 金培达

最佳音响效果 王丹戎?/?赵楠

最佳视觉效果 李庸基?/?南相宇

第5届亚洲电影大奖 ?(2011)

最佳美术指导(提名) 赵崇邦

最佳造型设计(提名) 余家安

最佳视觉效果(提名) 费尔·琼斯

第18届北京大学生电影节 ?(2011)

最佳观赏效果奖

  1. ##### MediaInfo ######

  2. General

  3. Unique ID : 315960529648074697392067304083700654347 (0xEDB3C8D6EAA97D684F6E95A29DA9210B)

  4. Complete name : Detective.Dee.And.The.Mystery.Of.[email protected]BBQDDQ.COM.mkv

  5. Format : Matroska

  6. Format version : Version 4

  7. File size : 8.82 GiB

  8. Duration : 2 h 3 min

  9. Overall bit rate : 10.2 Mb/s

  10. Movie name : Detective Dee And The Mystery Of The Phantom Flame 2010

  11. Encoded date : UTC 2021-10-04 14:11:35

  12. Writing application : mkvmerge v61.0.0 ('So') 64-bit

  13. Writing library : libebml v1.4.2 + libmatroska v1.6.4

  14. Cover : Yes

  15. Attachments : cover.jpg


  16. Video

  17. ID : 1

  18. Format : HEVC

  19. Format/Info : High Efficiency Video Coding

  20. Format profile : Main [email protected]@Main

  21. Codec ID : V_MPEGH/ISO/HEVC

  22. Duration : 2 h 3 min

  23. Bit rate : 7 179 kb/s

  24. Width : 1 920 pixels

  25. Height : 816 pixels

  26. Display aspect ratio : 2.35:1

  27. Frame rate mode : Constant

  28. Frame rate : 24.000 FPS

  29. Color space : YUV

  30. Chroma subsampling : 4:2:0

  31. Bit depth : 10 bits

  32. Bits/(Pixel*Frame) : 0.191

  33. Stream size : 6.19 GiB (70%)

  34. Writing library : x265 3.5+2-g2b25c9ba0+45:[Windows][GCC 10.2.0][64 bit] Yuuki 10bit+8bit+12bit

  35. Encoding settings : rc=crf / crf=17.0000 / qcomp=0.60 / qpstep=4 / stats-write=0 / stats-read=0 / no-lossless / no-cu-lossless / aq-mode=3 / aq-strength=0.90 / cbqpoffs=0 / crqpoffs=0 / ipratio=1.40 / pbratio=1.30 / psy-rd=2.00 / psy-rdoq=0.00 / deblock=0:0 / ref=6 / limit-refs=1 / no-limit-modes / bframes=8 / b-adapt=2 / bframe-bias=0 / b-pyramid / b-intra / weightp / weightb / min-keyint=24 / max-keyint=240 / rc-lookahead=24 / gop-lookahead=0 / NTMzNTQ=uuDQuD2mJt9fsCf / scenecut=40 / hist-scenecut=0 / radl=0 / max-cu-size=64 / min-cu-size=8 / me=3 / subme=7 / merange=48 / rdoq-level=0 / rd=4 / rdpenalty=0 / dynamic-rd=0.00 / no-rd-refine / ----- / cutree / sao / no-rect / no-amp / no-open-gop / wpp / no-pmode / no-pme / no-psnr / no-ssim / nr-intra=0 / nr-inter=0 / no-constrained-intra / no-strong-intra-smoothing / max-tu-size=32 / tu-inter-depth=1 / tu-intra-depth=1 / limit-tu=0 / qg-size=32 / qpmax=69 / qpmin=0 / ----- / cpuid=533541111039 / frame-threads=4 / numa-pools=+ / log-level=2 / input-csp=1 / input-res=1920x816 / interlace=0 / level-idc=0 / high-tier=1 / uhd-bd=0 / no-allow-non-conformance / repeat-headers / aud / no-hrd / info / hash=0 / no-temporal-layers / lookahead-slices=0 / no-splice / no-intra-refresh / no-ssim-rd / signhide / no-tskip / max-merge=3 / temporal-mvp / no-frame-dup / no-hme / no-analyze-src-pics / no-sao-non-deblock / selective-sao=4 / early-skip / rskip / no-fast-intra / no-tskip-fast / no-splitrd-skip / zone-count=0 / no-strict-cbr / no-rc-grain / no-const-vbv / sar=0 / overscan=0 / videoformat=5 / range=0 / colorprim=2 / transfer=2 / colormatrix=2 / chromaloc=0 / display-window=0 / cll=0,0 / min-luma=0 / max-luma=1023 / log2-max-poc-lsb=8 / vui-timing-info / vui-hrd-info / slices=1 / no-opt-qp-pps / no-opt-ref-list-length-pps / no-multi-pass-opt-rps / scenecut-bias=0.05 / hist-threshold=0.03 / no-opt-cu-delta-qp / no-aq-motion / no-hdr10 / no-hdr10-opt / no-dhdr10-opt / no-idr-recovery-sei / analysis-reuse-level=0 / analysis-save-reuse-level=0 / analysis-load-reuse-level=0 / scale-factor=0 / refine-intra=0 / refine-inter=0 / refine-mv=1 / refine-ctu-distortion=0 / no-limit-sao / ctu-info=0 / no-lowpass-dct / refine-analysis-type=0 / copy-pic=1 / max-ausize-factor=1.0 / no-dynamic-refine / no-single-sei / no-hevc-aq / no-svt / no-field / qp-adaptation-range=1.00 / scenecut-aware-qp=0conformance-window-offsets / right=0 / bottom=0 / NTMzNTQ= / decoder-max-rate=0 / no-vbv-live-multi-pass

  36. Default : Yes

  37. Forced : No


  38. Audio #1

  39. ID : 2

  40. ID in the original source medium : 4355 (0x1103)

  41. Format : DTS

  42. Format/Info : Digital Theater Systems

  43. Codec ID : A_DTS

  44. Duration : 2 h 3 min

  45. Bit rate mode : Constant

  46. Bit rate : 1 509 kb/s

  47. Channel(s) : 6 channels

  48. Channel layout : C L R Ls Rs LFE

  49. Sampling rate : 48.0 kHz

  50. Frame rate : 93.750 FPS (512 SPF)

  51. Bit depth : 16 bits

  52. Compression mode : Lossy

  53. Stream size : 1.30 GiB (15%)

  54. Title : Cantonese

  55. Language : Chinese

  56. Default : Yes

  57. Forced : No

  58. Original source medium : Blu-ray


  59. Audio #2

  60. ID : 3

  61. ID in the original source medium : 4357 (0x1105)

  62. Format : DTS

  63. Format/Info : Digital Theater Systems

  64. Codec ID : A_DTS

  65. Duration : 2 h 3 min

  66. Bit rate mode : Constant

  67. Bit rate : 1 509 kb/s

  68. Channel(s) : 6 channels

  69. Channel layout : C L R Ls Rs LFE

  70. Sampling rate : 48.0 kHz

  71. Frame rate : 93.750 FPS (512 SPF)

  72. Bit depth : 16 bits

  73. Compression mode : Lossy

  74. Stream size : 1.30 GiB (15%)

  75. Title : Mandarin

  76. Language : Chinese

  77. Default : No

  78. Forced : No

  79. Original source medium : Blu-ray


  80. Text #1

  81. ID : 4

  82. ID in the original source medium : 4612 (0x1204)

  83. Format : PGS

  84. Muxing mode : zlib

  85. Codec ID : S_HDMV/PGS

  86. Codec ID/Info : Picture based subtitle format used on BDs/HD-DVDs

  87. Duration : 1 h 55 min

  88. Bit rate : 12.7 kb/s

  89. Count of elements : 2263

  90. Stream size : 10.5 MiB (0%)

  91. Title : chs-画面外

  92. Language : Chinese

  93. Default : No

  94. Forced : No

  95. Original source medium : Blu-ray


  96. Text #2

  97. ID : 5

  98. ID in the original source medium : 4610 (0x1202)

  99. Format : PGS

  100. Muxing mode : zlib

  101. Codec ID : S_HDMV/PGS

  102. Codec ID/Info : Picture based subtitle format used on BDs/HD-DVDs

  103. Duration : 1 h 58 min

  104. Bit rate : 28.5 kb/s

  105. Count of elements : 2427

  106. Stream size : 24.2 MiB (0%)

  107. Title : cht-画面内

  108. Language : Chinese

  109. Default : No

  110. Forced : No

  111. Original source medium : Blu-ray


  112. Text #3

  113. ID : 6

  114. ID in the original source medium : 4613 (0x1205)

  115. Format : PGS

  116. Muxing mode : zlib

  117. Codec ID : S_HDMV/PGS

  118. Codec ID/Info : Picture based subtitle format used on BDs/HD-DVDs

  119. Duration : 1 h 55 min

  120. Bit rate : 13.1 kb/s

  121. Count of elements : 2263

  122. Stream size : 10.8 MiB (0%)

  123. Title : cht-画面外

  124. Language : Chinese

  125. Default : No

  126. Forced : No

  127. Original source medium : Blu-ray


  128. Text #4

  129. ID : 7

  130. ID in the original source medium : 4608 (0x1200)

  131. Format : PGS

  132. Muxing mode : zlib

  133. Codec ID : S_HDMV/PGS

  134. Codec ID/Info : Picture based subtitle format used on BDs/HD-DVDs

  135. Duration : 1 h 58 min

  136. Bit rate : 32.6 kb/s

  137. Count of elements : 1751

  138. Stream size : 27.7 MiB (0%)

  139. Language : English

  140. Default : No

  141. Forced : No

  142. Original source medium : Blu-ray


  143. Menu

  144. 00:00:00.000 : Chapter 01

  145. 00:07:14.500 : Chapter 02

  146. 00:14:21.208 : Chapter 03

  147. 00:18:30.125 : Chapter 04

  148. 00:23:59.125 : Chapter 05

  149. 00:28:01.916 : Chapter 06

  150. 00:35:13.125 : Chapter 07

  151. 00:42:32.416 : Chapter 08

  152. 00:48:34.583 : Chapter 09

  153. 00:52:51.666 : Chapter 10

  154. 01:01:48.583 : Chapter 11

  155. 01:07:22.916 : Chapter 12

  156. 01:15:45.208 : Chapter 13

  157. 01:19:19.500 : Chapter 14

  158. 01:26:54.375 : Chapter 15

  159. 01:32:04.708 : Chapter 16

  160. 01:36:29.250 : Chapter 17

  161. 01:42:29.250 : Chapter 18

  162. 01:47:49.333 : Chapter 19

  163. 01:53:16.583 : Chapter 20

  164. 01:58:46.125 : Chapter 21


文件下载


除非特别注明,本文『狄仁杰之通天帝国[国粤语配音/中文字幕].Detective.Dee.And.2010.1080p.BluRay.x265.10bit.DTS.2Audio 8.82GB』来源于互联网机器人自动抓取,非本站原创。 浮游电影网不对本文拥有版权,如有侵犯,请联系邮箱:fuyouu#yandex.com[#换成@]投诉。我们会在15个工作日内删除。 但烦请转载时请标明出处:“本文转载于『浮游电影网』,原文地址:https://www.fuyouu.com/14842.html

评论吧骚年!

发表你的见解   

昵称*

E-mail*(建议输入,以便收到博主回复的提示邮件)

验证码*

您可以使用eMule或eMule Mod(Windows)、aMule(Win、Linux、Mac)等软件下载eD2k链接。。
eMule收藏集(.emulecollection)文件是您选中的所有链接的列表文件。eMule可以直接下载它们。
按住SHIFT键选择可以选中多个选择框。
可用文件名和大小选择器来选择文件。
文件名选择器帮您根据文件名称或后缀来选择文件。不分大小写。
符号使用:
和:空格( )、+
不包含:-
或:|
转义:一对英文引号("");
匹配开头:^
匹配结尾:$
例如:
选中所有名称中包含有“eMule”或“0.49c”字眼,但不包含有“exe”字眼的:emule|0.49c -exe
选中所有名称的开头是“eMule”,结尾是“0.49c”的:^emule 0.49c$
选中所有名称中带有“eMule 0.49c”的(必须是“eMule 0.49c”,中间没有别的字符,不能是“eMule fake 0.49c”),需要转义:"emule 0.49c"
大小选择器帮您根据文件大小选择文件。