当前位置: 首页 >> 海外电影 >> 午夜守门人[中文字幕].The.Night.Porter.1974.1080p.BluRay.x265.10bit.FLAC.2.0 6.90GB >> 正文

午夜守门人[中文字幕].The.Night.Porter.1974.1080p.BluRay.x265.10bit.FLAC.2.0 6.90GB

2021年10月10日 11:58:54     电影发布:来源于网络     电影分类:海外电影     评论(0)    

午夜守门人[中文字幕].The.Night.Porter.1974.1080p.BluRay.x265.10bit.FLAC.2.0 6.90GB 剧情片 海外电影  第1张

◎译 名 午夜守门人/The Night Porter/狂恋/狂爱(台)/魂断多瑙河

◎片 名 Il portiere di notte

◎年 代 1974

◎产 地 意大利

◎类 别 剧情

◎语 言 英语

◎上映日期 1974-04-03

◎豆瓣评分 7.3/10 from 14149 users

◎豆瓣链接 https://movie.douban.com/subject/1304687/

◎片 长 118 分钟

◎导 演 莉莉安娜·卡瓦尼 Liliana Cavani

◎编 剧 莉莉安娜·卡瓦尼 Liliana Cavani / 芭芭拉·阿尔贝蒂 Barbara Alberti / 阿梅代奥·帕加尼 Amedeo Pagani

◎主 演 德克·博加德 Dirk Bogarde

夏洛特·兰普林 Charlotte Rampling

菲利普·勒鲁瓦 Philippe Leroy

加布里埃尔·费泽蒂 Gabriele Ferzetti

Giuseppe Addobbati Giuseppe Addobbati

伊莎·米兰达 Isa Miranda

Nino Bignamini Nino Bignamini

Marino Masé Marino Masé

阿梅代奥·阿莫迪奥 Amedeo Amodio

Piero Vida Piero Vida

杰弗里·科普尔斯顿 Geoffrey Copleston

Manfred Freyberger Manfred Freyberger

Ugo Cardea Ugo Cardea

Hilda Gunther Hilda Gunther

诺拉·里奇 Nora Ricci

Piero Mazzinghi Piero Mazzinghi

马里诺梅瑟 Marino Masé

◎标 签 意大利 | 情色 | 二战 | 人性 | 意大利电影 | 战争 | 爱情 | LilianaCavani

◎简 介

另类的爱情故事,肢体纠结的情色语言。

1957年,原纳粹军官Max(Dirk Bogarde 饰)隐姓埋名,在维也纳一家酒店当午夜守门人。某日,他遇到著名指挥家的妻子Lucia(Charlotte Rampling 饰),往事排山倒海而来。

原来,Lucia是纳粹集中营的幸存者,当年是Max的性奴,也是他的情人,Max对她一直念念不忘。

Max趁Lucia外出演出,和Lucia重逢,随即将她接到了自己的公寓,二人迅速恢复了往日的关系。

于此同时,Max所属纳粹余孽小团体也在寻找Lucia,想除掉这个有力的证人,Lucia的丈夫也因为妻子失踪而报警。Max走投无路,只能囤积了大量食品在公寓里,和Lucia足不出户,靠性爱彼此安慰,忘记现实的困境,等待终将来临的救赎或者毁灭。

  1. ##### MediaInfo ######

  2. General

  3. Unique ID : 48589409756826526842679156789578733938 (0x248DFADC3D21D371A3C11FCD4B4A9972)

  4. Complete name : [email protected]DDQ.COM.mkv

  5. Format : Matroska

  6. Format version : Version 4

  7. File size : 6.90 GiB

  8. Duration : 1 h 59 min

  9. Overall bit rate mode : Variable

  10. Overall bit rate : 8 282 kb/s

  11. Movie name : The Night Porter

  12. Encoded date : UTC 2021-10-08 10:04:54

  13. Writing application : mkvmerge v61.0.0 ('So') 64-bit

  14. Writing library : libebml v1.4.2 + libmatroska v1.6.4

  15. Cover : Yes

  16. Attachments : cover.jpg


  17. Video

  18. ID : 1

  19. Format : HEVC

  20. Format/Info : High Efficiency Video Coding

  21. Format profile : Main [email protected]@Main

  22. Codec ID : V_MPEGH/ISO/HEVC

  23. Duration : 1 h 59 min

  24. Bit rate : 8 023 kb/s

  25. Width : 1 920 pixels

  26. Height : 1 036 pixels

  27. Display aspect ratio : 1.85:1

  28. Frame rate mode : Constant

  29. Frame rate : 24.000 FPS

  30. Color space : YUV

  31. Chroma subsampling : 4:2:0

  32. Bit depth : 10 bits

  33. Bits/(Pixel*Frame) : 0.168

  34. Stream size : 6.68 GiB (97%)

  35. Writing library : x265 3.5+2-g2b25c9ba0+45:[Windows][GCC 10.2.0][64 bit] Yuuki 10bit+8bit+12bit

  36. Encoding settings : rc=crf / crf=19.0000 / qcomp=0.70 / qpstep=4 / stats-write=0 / stats-read=0 / no-lossless / no-cu-lossless / aq-mode=3 / aq-strength=0.70 / cbqpoffs=0 / crqpoffs=0 / ipratio=1.40 / pbratio=1.30 / psy-rd=2.00 / psy-rdoq=0.00 / deblock=0:0 / ref=6 / limit-refs=1 / no-limit-modes / bframes=8 / b-adapt=2 / bframe-bias=0 / b-pyramid / b-intra / weightp / weightb / min-keyint=24 / max-keyint=240 / rc-lookahead=24 / gop-lookahead=0 / NTMzNTQ=uuDQuD2mJt9fsCf / scenecut=40 / hist-scenecut=0 / radl=0 / max-cu-size=64 / min-cu-size=8 / me=3 / subme=7 / merange=48 / rdoq-level=0 / rd=4 / rdpenalty=0 / dynamic-rd=0.00 / no-rd-refine / ----- / cutree / sao / no-rect / no-amp / no-open-gop / wpp / no-pmode / pme / no-psnr / no-ssim / nr-intra=0 / nr-inter=0 / no-constrained-intra / no-strong-intra-smoothing / max-tu-size=32 / tu-inter-depth=1 / tu-intra-depth=1 / limit-tu=0 / qg-size=32 / qpmax=69 / qpmin=0 / ----- / cpuid=533541111039 / frame-threads=4 / numa-pools=+ / log-level=2 / input-csp=1 / input-res=1920x1036 / interlace=0 / level-idc=0 / high-tier=1 / uhd-bd=0 / no-allow-non-conformance / no-repeat-headers / aud / no-hrd / info / hash=0 / no-temporal-layers / lookahead-slices=0 / no-splice / no-intra-refresh / no-ssim-rd / signhide / no-tskip / max-merge=3 / temporal-mvp / no-frame-dup / no-hme / no-analyze-src-pics / no-sao-non-deblock / selective-sao=4 / early-skip / rskip / no-fast-intra / no-tskip-fast / no-splitrd-skip / zone-count=0 / no-strict-cbr / no-rc-grain / no-const-vbv / sar=0 / overscan=0 / videoformat=5 / range=0 / colorprim=2 / transfer=2 / colormatrix=2 / chromaloc=0 / display-window=0 / cll=0,0 / min-luma=0 / max-luma=1023 / log2-max-poc-lsb=8 / vui-timing-info / vui-hrd-info / slices=1 / no-opt-qp-pps / no-opt-ref-list-length-pps / no-multi-pass-opt-rps / scenecut-bias=0.05 / hist-threshold=0.03 / no-opt-cu-delta-qp / no-aq-motion / no-hdr10 / no-hdr10-opt / no-dhdr10-opt / no-idr-recovery-sei / analysis-reuse-level=0 / analysis-save-reuse-level=0 / analysis-load-reuse-level=0 / scale-factor=0 / refine-intra=0 / refine-inter=0 / refine-mv=1 / refine-ctu-distortion=0 / no-limit-sao / ctu-info=0 / no-lowpass-dct / refine-analysis-type=0 / copy-pic=1 / max-ausize-factor=1.0 / no-dynamic-refine / no-single-sei / no-hevc-aq / no-svt / no-field / qp-adaptation-range=1.00 / scenecut-aware-qp=0conformance-window-offsets / right=0 / bottom=0 / NTMzNTQ= / decoder-max-rate=0 / no-vbv-live-multi-pass

  37. Default : Yes

  38. Forced : No


  39. Audio

  40. ID : 2

  41. Format : FLAC

  42. Format/Info : Free Lossless Audio Codec

  43. Codec ID : A_FLAC

  44. Duration : 1 h 59 min

  45. Bit rate mode : Variable

  46. Bit rate : 214 kb/s

  47. Channel(s) : 2 channels

  48. Channel layout : L R

  49. Sampling rate : 48.0 kHz

  50. Frame rate : 11.719 FPS (4096 SPF)

  51. Bit depth : 16 bits

  52. Compression mode : Lossless

  53. Stream size : 182 MiB (3%)

  54. Writing library : libFLAC 1.2.1 (UTC 2007-09-17)

  55. Language : English

  56. Default : Yes

  57. Forced : No


  58. Text #1

  59. ID : 3

  60. ID in the original source medium : 4609 (0x1201)

  61. Format : PGS

  62. Muxing mode : zlib

  63. Codec ID : S_HDMV/PGS

  64. Codec ID/Info : Picture based subtitle format used on BDs/HD-DVDs

  65. Duration : 1 h 49 min

  66. Bit rate : 24.3 kb/s

  67. Count of elements : 1456

  68. Stream size : 19.0 MiB (0%)

  69. Title : chs&eng

  70. Language : Chinese

  71. Default : Yes

  72. Forced : No

  73. Original source medium : Blu-ray


  74. Text #2

  75. ID : 4

  76. ID in the original source medium : 4610 (0x1202)

  77. Format : PGS

  78. Muxing mode : zlib

  79. Codec ID : S_HDMV/PGS

  80. Codec ID/Info : Picture based subtitle format used on BDs/HD-DVDs

  81. Duration : 1 h 49 min

  82. Bit rate : 24.5 kb/s

  83. Count of elements : 1456

  84. Stream size : 19.1 MiB (0%)

  85. Title : cht&eng

  86. Language : Chinese

  87. Default : No

  88. Forced : No

  89. Original source medium : Blu-ray


  90. Text #3

  91. ID : 5

  92. ID in the original source medium : 4611 (0x1203)

  93. Format : PGS

  94. Muxing mode : zlib

  95. Codec ID : S_HDMV/PGS

  96. Codec ID/Info : Picture based subtitle format used on BDs/HD-DVDs

  97. Duration : 1 h 49 min

  98. Bit rate : 14.3 kb/s

  99. Count of elements : 1456

  100. Stream size : 11.2 MiB (0%)

  101. Title : chs

  102. Language : Chinese

  103. Default : No

  104. Forced : No

  105. Original source medium : Blu-ray


  106. Text #4

  107. ID : 6

  108. ID in the original source medium : 4612 (0x1204)

  109. Format : PGS

  110. Muxing mode : zlib

  111. Codec ID : S_HDMV/PGS

  112. Codec ID/Info : Picture based subtitle format used on BDs/HD-DVDs

  113. Duration : 1 h 49 min

  114. Bit rate : 14.5 kb/s

  115. Count of elements : 1456

  116. Stream size : 11.3 MiB (0%)

  117. Title : cht

  118. Language : Chinese

  119. Default : No

  120. Forced : No

  121. Original source medium : Blu-ray


  122. Text #5

  123. ID : 7

  124. Format : PGS

  125. Muxing mode : zlib

  126. Codec ID : S_HDMV/PGS

  127. Codec ID/Info : Picture based subtitle format used on BDs/HD-DVDs

  128. Duration : 1 h 53 min

  129. Bit rate : 22.8 kb/s

  130. Count of elements : 1653

  131. Stream size : 18.5 MiB (0%)

  132. Title : eng

  133. Language : English

  134. Default : No

  135. Forced : No


  136. Menu

  137. 00:00:00.000 : Chapter 01

  138. 00:05:38.666 : Chapter 02

  139. 00:15:11.541 : Chapter 03

  140. 00:23:33.500 : Chapter 04

  141. 00:28:42.583 : Chapter 05

  142. 00:41:44.625 : Chapter 06

  143. 00:51:23.875 : Chapter 07

  144. 00:59:57.250 : Chapter 08

  145. 01:09:51.875 : Chapter 09

  146. 01:18:42.916 : Chapter 10

  147. 01:31:06.875 : Chapter 11

  148. 01:45:53.833 : Chapter 12


文件下载


除非特别注明,本文『午夜守门人[中文字幕].The.Night.Porter.1974.1080p.BluRay.x265.10bit.FLAC.2.0 6.90GB』来源于互联网机器人自动抓取,非本站原创。 浮游电影网不对本文拥有版权,如有侵犯,请联系邮箱:fuyouu#yandex.com[#换成@]投诉。我们会在15个工作日内删除。 但烦请转载时请标明出处:“本文转载于『浮游电影网』,原文地址:https://www.fuyouu.com/14841.html

评论吧骚年!

发表你的见解   

昵称*

E-mail*(建议输入,以便收到博主回复的提示邮件)

验证码*

您可以使用eMule或eMule Mod(Windows)、aMule(Win、Linux、Mac)等软件下载eD2k链接。。
eMule收藏集(.emulecollection)文件是您选中的所有链接的列表文件。eMule可以直接下载它们。
按住SHIFT键选择可以选中多个选择框。
可用文件名和大小选择器来选择文件。
文件名选择器帮您根据文件名称或后缀来选择文件。不分大小写。
符号使用:
和:空格( )、+
不包含:-
或:|
转义:一对英文引号("");
匹配开头:^
匹配结尾:$
例如:
选中所有名称中包含有“eMule”或“0.49c”字眼,但不包含有“exe”字眼的:emule|0.49c -exe
选中所有名称的开头是“eMule”,结尾是“0.49c”的:^emule 0.49c$
选中所有名称中带有“eMule 0.49c”的(必须是“eMule 0.49c”,中间没有别的字符,不能是“eMule fake 0.49c”),需要转义:"emule 0.49c"
大小选择器帮您根据文件大小选择文件。