当前位置: 首页 >> 海外电影 >> 洛克兄弟[中文字幕].Rocco.and.His.Brothers.1960.1080p.WEB-DL.H264.MPEG 9.74GB >> 正文

洛克兄弟[中文字幕].Rocco.and.His.Brothers.1960.1080p.WEB-DL.H264.MPEG 9.74GB

2021年10月10日 11:51:33     电影发布:来源于网络     电影分类:海外电影     评论(0)    

洛克兄弟[中文字幕].Rocco.and.His.Brothers.1960.1080p.WEB DL.H264.MPEG 9.74GB 犯罪片 剧情片 海外电影  第1张

◎译 名 洛可兄弟/Rocco and His Brothers/洛克兄弟/罗科及其兄弟/罗科和他的兄弟

◎片 名 Rocco e i suoi fratelli

◎年 代 1960

◎产 地 法国,意大利

◎类 别 剧情 / 犯罪

◎语 言 意大利语

◎上映日期 1960-09-06(威尼斯电影节)

◎豆瓣评分 8.5/10 from 3436 users

◎豆瓣链接 https://movie.douban.com/subject/1303558/

◎片 长 179分钟

◎导 演 卢基诺·维斯康蒂 Luchino Visconti

◎编 剧 苏索·切基·达米科 Suso Cecchi d'Amico / 帕斯夸莱·费斯塔·康帕尼莱 Pasquale Festa Campanile / 卢基诺·维斯康蒂 Luchino Visconti / Giovanni Testori Giovanni Testori / 恩里科·梅迪欧力 Enrico Medioli / 瓦斯科·普拉托里尼 Vasco Pratolini / 马西莫·弗兰乔萨 Massimo Franciosa

◎主 演 阿兰·德龙 Alain Delon

雷纳托·萨尔瓦托雷 Renato Salvatori

安妮·吉拉尔多 Annie Girardot

卡汀娜·帕辛欧 Katina Paxinou

亚历山德拉·帕纳罗 Alessandra Panaro

科拉多·帕尼 Corrado Pani

克劳迪亚·莫里 Claudia Mori

阿德里娅娜·阿斯蒂 Adriana Asti

恩佐·菲耶尔蒙特 Enzo Fiermonte

尼诺·卡斯泰尔诺沃 Nino Castelnuovo

罗萨里奥·博雷利 Rosario Borelli

雷纳托·泰拉 Renato Terra

克劳迪娅·卡汀娜 Claudia Cardinale

苏希·德莱尔 Suzy Delair

Eduardo Passarelli Eduardo Passarelli

罗杰·哈宁 Roger Hanin

斯皮罗斯·福卡斯 Spiros Focás

Max Cartier Max Cartier

弗兰卡·瓦莱里 Franca Valeri

保罗·斯托帕 Paolo Stoppa

Rocco Vidolazzi Rocco Vidolazzi

◎标 签 意大利 | 1960 | 新现实主义 | 犯罪 | 法国 | 剧情 | 黑白 | 家庭

◎简 介

帕荣迪家族男丁新旺,可惜生在贫穷的农村,于是,母亲决定带着四个儿子北上,来到米兰投奔先一步到达的大儿子文森(Spiros Focás 饰)。兄弟们的到来给文森造成了不小的麻烦,他被房东赶出住所 ,只得和一家人挤在冰冷的地下室。虽然日子过得清贫,但是兄弟五人在一起,也算是其乐融融,二哥西蒙(尼瓦多·莎瓦特利 Renato Salvatori 饰)拳击手的职业让三弟洛可(阿兰·德龙 Alain Delon 饰)跃跃欲试。

妓女娜迪亚(安妮·吉拉尔多 Annie Girardot 饰)的出现打破了一家人平静的生活,她隐瞒了和西蒙的露水情缘,倒是与洛可越走越近。东窗事发后,失去理智的西蒙在洛可面前玷污了娜迪亚。心碎的洛可离开了家人,将痛苦发泄到了拳击事业上,竟意外的获得了成功。与此同时,作为前辈的西蒙却在烟酒中渐渐荒废了事业。然而,兄弟二人之间的感情纠葛并没有就此结束,互相纠葛的亲情和爱情最终酿成了悲剧。

◎获奖情况

第21届威尼斯电影节 ?(1960)

主竞赛单元金狮奖(提名) 卢基诺·维斯康蒂

评审团特别奖 卢基诺·维斯康蒂

费比西奖(国际影评人联盟奖)最佳影片 卢基诺·维斯康蒂

  1. ##### MediaInfo ######

  2. General

  3. Complete name : 洛克兄弟[email protected].COM.mp4

  4. Format : MPEG-4

  5. Format profile : Base Media

  6. Codec ID : isom (isom/iso2/avc1/mp41)

  7. File size : 9.74 GiB

  8. Duration : 2 h 55 min

  9. Overall bit rate mode : Constant

  10. Overall bit rate : 7 934 kb/s

  11. Writing application : Lavf58.19.100


  12. Video

  13. ID : 1

  14. Format : AVC

  15. Format/Info : Advanced Video Codec

  16. Format profile : [email protected]

  17. Format settings : CABAC / 2 Ref Frames

  18. Format settings, CABAC : Yes

  19. Format settings, Reference frames : 2 frames

  20. Format settings, GOP : M=3, N=32

  21. Codec ID : avc1

  22. Codec ID/Info : Advanced Video Coding

  23. Duration : 2 h 55 min

  24. Bit rate mode : Constant

  25. Bit rate : 7 800 kb/s

  26. Width : 1 920 pixels

  27. Height : 1 080 pixels

  28. Display aspect ratio : 16:9

  29. Frame rate mode : Constant

  30. Frame rate : 25.000 FPS

  31. Color space : YUV

  32. Chroma subsampling : 4:2:0

  33. Bit depth : 8 bits

  34. Scan type : Progressive

  35. Bits/(Pixel*Frame) : 0.150

  36. Stream size : 9.57 GiB (98%)

  37. Writing library : 2.1.60190.590

  38. Codec configuration box : avcC


  39. Audio

  40. ID : 2

  41. Format : MPEG Audio

  42. Format version : Version 1

  43. Format profile : Layer 2

  44. Codec ID : mp4a-6B

  45. Duration : 2 h 55 min

  46. Bit rate mode : Constant

  47. Bit rate : 128 kb/s

  48. Channel(s) : 2 channels

  49. Sampling rate : 48.0 kHz

  50. Compression mode : Lossy

  51. Stream size : 161 MiB (2%)

  52. Default : Yes

  53. Alternate group : 1




复制代码



文件下载


除非特别注明,本文『洛克兄弟[中文字幕].Rocco.and.His.Brothers.1960.1080p.WEB-DL.H264.MPEG 9.74GB』来源于互联网机器人自动抓取,非本站原创。 浮游电影网不对本文拥有版权,如有侵犯,请联系邮箱:fuyouu#yandex.com[#换成@]投诉。我们会在15个工作日内删除。 但烦请转载时请标明出处:“本文转载于『浮游电影网』,原文地址:https://www.fuyouu.com/14837.html

评论吧骚年!

发表你的见解   

昵称*

E-mail*(建议输入,以便收到博主回复的提示邮件)

验证码*

您可以使用eMule或eMule Mod(Windows)、aMule(Win、Linux、Mac)等软件下载eD2k链接。。
eMule收藏集(.emulecollection)文件是您选中的所有链接的列表文件。eMule可以直接下载它们。
按住SHIFT键选择可以选中多个选择框。
可用文件名和大小选择器来选择文件。
文件名选择器帮您根据文件名称或后缀来选择文件。不分大小写。
符号使用:
和:空格( )、+
不包含:-
或:|
转义:一对英文引号("");
匹配开头:^
匹配结尾:$
例如:
选中所有名称中包含有“eMule”或“0.49c”字眼,但不包含有“exe”字眼的:emule|0.49c -exe
选中所有名称的开头是“eMule”,结尾是“0.49c”的:^emule 0.49c$
选中所有名称中带有“eMule 0.49c”的(必须是“eMule 0.49c”,中间没有别的字符,不能是“eMule fake 0.49c”),需要转义:"emule 0.49c"
大小选择器帮您根据文件大小选择文件。