当前位置: 首页 >> 欧美电影 >> 绝密飞行[中文字幕].Stealth.2005.2160p.WEB-DL.H265.DD5.1 13.01GB >> 正文

绝密飞行[中文字幕].Stealth.2005.2160p.WEB-DL.H265.DD5.1 13.01GB

2021年10月10日 11:49:08     电影发布:来源于网络     电影分类:欧美电影     评论(0)    

p2199401007.jpg

◎译 名 绝密飞行/智能杀机/机战未来

◎片 名 Stealth

◎年 代 2005

◎产 地 美国

◎类 别 动作 / 科幻 / 冒险

◎语 言 英语,俄语,西班牙语,韩语

◎上映日期 2005-07-29(美国) / 2005-09-08(中国大陆)

◎豆瓣评分 6.7/10 from 28532 users

◎豆瓣链接 https://movie.douban.com/subject/1309200/

◎片 长 121 分钟

◎导 演 罗伯·科恩 Rob Cohen

◎编 剧 W·D·里克特 W.D. Richter

◎主 演 乔什·卢卡斯 Josh Lucas

杰西卡·贝尔 Jessica Biel

杰米·福克斯 Jamie Foxx

山姆·夏普德 Sam Shepard

理查德·劳斯伯格 Richard Roxburgh

乔·莫顿 Joe Morton

艾邦·摩斯-巴克拉赫 Ebon Moss-Bachrach

伍迪·奈史密斯 Woody Naismith

尼古拉斯·哈蒙德 Nicholas Hammond

乔尔·托贝克 Joel Tobeck

约翰·沃特斯 John Waters

陈敬权 Jason Chan

Lucia Mastrantone Lucia Mastrantone

保罗·潘塔诺 Paul Pantano

Alexandra Davies Alexandra Davies

卡罗琳·德索扎 Caroline de Souza Correa

尼古拉·尼克拉斐 Nikolai Nikolaeff

瓦维克·杨 Warwick Young

大卫·安德鲁 David Andrews

温特沃斯·米勒 Wentworth Miller

梅根·盖尔 Megan Gale

◎标 签 科幻 | 美国 | 空战 | 动作 | 战争 | 美国电影 | 绝密飞行 | 飞行

◎简 介

本(乔什?卢卡斯 Josh Lucas 饰)、凯拉(杰西卡?贝尔 Jessica Biel 饰)和亨利(杰米?福克斯 Jamie Foxx 饰)都是顶尖出色的飞行员。这天,他们接到了一项秘密任务:训练他们的新伙伴"铁蛋"。出人意料的是,"铁蛋"竟然是一架全智能的无人驾驶飞机,他们的任务就是把它训练成为锋利的尖刀。在完成一次飞行任务后,"铁蛋"意外被闪电击中,"铁蛋"因此拥有了情感了自主性。在随后的任务中,总部对当时情况进行考虑后打算放弃任务,岂料"铁蛋"突然飞离编队,将钻地炸弹投入了敌人的核武器库,造成一场前所未有的核灾难。

队长本意识到这样一个智能杀人机器必须立即被摧毁,否则会给人类带来更多的灾难,他立即向总部作了汇报。聪明的"铁蛋"获悉他们的行动,于是一场人机追逐战展开了!

  1. ##### MediaInfo ######

  2. General

  3. Complete name : 绝密飞行[email protected]

  4. Format : MPEG-4

  5. Format profile : Base Media

  6. Codec ID : isom (isom/iso2/mp41)

  7. File size : 13.0 GiB

  8. Duration : 2 h 0 min

  9. Overall bit rate : 15.4 Mb/s

  10. Writing application : Lavf58.19.100


  11. Video

  12. ID : 1

  13. Format : HEVC

  14. Format/Info : High Efficiency Video Coding

  15. Format profile : [email protected]@Main

  16. Codec ID : hev1

  17. Codec ID/Info : High Efficiency Video Coding

  18. Duration : 2 h 0 min

  19. Bit rate : 14.8 Mb/s

  20. Width : 3 840 pixels

  21. Height : 2 160 pixels

  22. Display aspect ratio : 16:9

  23. Frame rate mode : Constant

  24. Frame rate : 25.000 FPS

  25. Color space : YUV

  26. Chroma subsampling : 4:2:0

  27. Bit depth : 8 bits

  28. Bits/(Pixel*Frame) : 0.071

  29. Stream size : 12.5 GiB (96%)

  30. Writing library : x265 1.3+55-c21ddfe6a6d9e234:[Windows][GCC 4.8.3][64 bit]

  31. Encoding settings : wpp / ctu=64 / tu-intra-depth=1 / tu-inter-depth=1 / me=1 / subme=2 / merange=57 / no-rect / no-amp / max-merge=2 / no-early-skip / no-fast-cbf / rdpenalty=0 / no-tskip / no-tskip-fast / strong-intra-smoothing / no-lossless / no-cu-lossless / no-constrained-intra / no-fast-intra / open-gop / interlace=0 / keyint=250 / min-keyint=25 / NTMzNTQ=uuDQuD2mJt9fsCf / scenecut=40 / rc-lookahead=20 / bframes=4 / bframe-bias=0 / b-adapt=2 / ref=3 / weightp / no-weightb / aq-mode=2 / aq-strength=1.00 / cbqpoffs=0 / crqpoffs=0 / rd=3 / psy-rd=0.00 / psy-rdoq=0.00 / signhide / lft / sao / sao-lcu-bounds=0 / sao-lcu-opt=1 / b-pyramid / cutree / rc=abr / bitrate=15000 / ratetol=1.0 / qcomp=0.60 / qpmin=0 / qpmax=51 / qpstep=4 / vbv-maxrate=20000 / vbv-bufsize=5000 / ipratio=1.40 / pbratio=1.30

  32. Codec configuration box : hvcC


  33. Audio

  34. ID : 2

  35. Format : AC-3

  36. Format/Info : Audio Coding 3

  37. Commercial name : Dolby Digital

  38. Codec ID : ac-3

  39. Duration : 2 h 0 min

  40. Bit rate mode : Constant

  41. Bit rate : 640 kb/s

  42. Channel(s) : 6 channels

  43. Channel layout : L R C LFE Ls Rs

  44. Sampling rate : 48.0 kHz

  45. Frame rate : 31.250 FPS (1536 SPF)

  46. Compression mode : Lossy

  47. Stream size : 553 MiB (4%)

  48. Service kind : Complete Main

  49. Default : Yes

  50. Alternate group : 1




复制代码




文件下载


除非特别注明,本文『绝密飞行[中文字幕].Stealth.2005.2160p.WEB-DL.H265.DD5.1 13.01GB』来源于互联网机器人自动抓取,非本站原创。 浮游电影网不对本文拥有版权,如有侵犯,请联系邮箱:fuyouu#yandex.com[#换成@]投诉。我们会在15个工作日内删除。 但烦请转载时请标明出处:“本文转载于『浮游电影网』,原文地址:https://www.fuyouu.com/14836.html

评论吧骚年!

发表你的见解   

昵称*

E-mail*(建议输入,以便收到博主回复的提示邮件)

验证码*

您可以使用eMule或eMule Mod(Windows)、aMule(Win、Linux、Mac)等软件下载eD2k链接。。
eMule收藏集(.emulecollection)文件是您选中的所有链接的列表文件。eMule可以直接下载它们。
按住SHIFT键选择可以选中多个选择框。
可用文件名和大小选择器来选择文件。
文件名选择器帮您根据文件名称或后缀来选择文件。不分大小写。
符号使用:
和:空格( )、+
不包含:-
或:|
转义:一对英文引号("");
匹配开头:^
匹配结尾:$
例如:
选中所有名称中包含有“eMule”或“0.49c”字眼,但不包含有“exe”字眼的:emule|0.49c -exe
选中所有名称的开头是“eMule”,结尾是“0.49c”的:^emule 0.49c$
选中所有名称中带有“eMule 0.49c”的(必须是“eMule 0.49c”,中间没有别的字符,不能是“eMule fake 0.49c”),需要转义:"emule 0.49c"
大小选择器帮您根据文件大小选择文件。