当前位置: 首页 >> 欧美电影 >> 暗黑之夜[中文字幕].Black.As.Night.1080p.AMZN.WEB-DL.DDP5.1.H.264 9.01GB >> 正文

暗黑之夜[中文字幕].Black.As.Night.1080p.AMZN.WEB-DL.DDP5.1.H.264 9.01GB

2021年10月09日 10:14:23     电影发布:来源于网络     电影分类:欧美电影     评论(0)    

暗黑之夜[中文字幕].Black.As.Night.1080p.AMZN.WEB DL.DDP5.1.H.264 9.01GB 恐怖片 欧美电影  第1张

◎译 名 暗黑之夜 / 吸血鬼之战

◎片 名 Black as Night

◎年 代 2021

◎产 地 美国

◎类 别 恐怖

◎语 言 英语

◎上映日期 2021-10-01(美国网络)

◎IMDb链接 https://www.imdb.com/title/tt13372884/

◎豆瓣链接 https://movie.douban.com/subject/35315932/

◎演 员 凯斯·大卫 Keith David (id:1019012)

肯妮莎·汤普森 Kenneisha Thompson (id:1346280)

法布里齐奥·扎卡里·奇诺 Fabrizio Zacharee Guido (id:1334276)

Abbie Gayle Abbie Gayle (id:1452213)

阿·米切尔 Al Mitchell (id:1363417)

Tim J. Smith (id:1248621)

◎标 签 WK

◎简 介

A teenage girl with self-esteem issues finds confidence in the most unlikely way, by spending her summer battling vampires that prey on New Orleans' disenfranchised with the help of her best friend, the boy she's always pined for, and a peculiar rich girl.

  1. ##### MediaInfo ######

  2. General

  3. Unique ID : 260529432593690197554959100780285141182 (0xC40024C0856D642BE4D70FE7EA3A20BE)

  4. Complete name : [email protected]kv

  5. Format : Matroska

  6. Format version : Version 4

  7. File size : 9.00 GiB

  8. Duration : 1 h 27 min

  9. Overall bit rate : 14.8 Mb/s

  10. Encoded date : UTC 2021-10-08 08:48:29

  11. Writing application : mkvmerge v48.0.0 ('Fortress Around Your Heart') 64-bit

  12. Writing library : libebml v1.4.0 + libmatroska v1.6.0


  13. Video

  14. ID : 1

  15. Format : AVC

  16. Format/Info : Advanced Video Codec

  17. Format profile : [email protected]

  18. Format settings : CABAC / 4 Ref Frames

  19. Format settings, CABAC : Yes

  20. Format settings, Reference frames : 4 frames

  21. Codec ID : V_MPEG4/ISO/AVC

  22. Duration : 1 h 27 min

  23. Bit rate mode : Constant

  24. Bit rate : 8 343 kb/s

  25. Nominal bit rate : 10 000 kb/s

  26. Width : 1 920 pixels

  27. Height : 800 pixels

  28. Display aspect ratio : 2.40:1

  29. Frame rate mode : Constant

  30. Frame rate : 23.976 (24000/1001/53354) FPS

  31. Color space : YUV

  32. Chroma subsampling : 4:2:0

  33. Bit depth : 8 bits

  34. Scan type : Progressive

  35. Bits/(Pixel*Frame) : 0.227

  36. Stream size : 5.09 GiB (57%)

  37. Default : Yes

  38. Forced : No

  39. Color range : Limited

  40. Color primaries : BT.709

  41. Transfer characteristics : BT.709

  42. Matrix coefficients : BT.709


  43. Audio #1

  44. ID : 2

  45. Format : E-AC-3

  46. Format/Info : Enhanced AC-3

  47. Commercial name : Dolby Digital Plus

  48. Codec ID : A_EAC3

  49. Duration : 1 h 27 min

  50. Bit rate mode : Constant

  51. Bit rate : 640 kb/s

  52. Channel(s) : 6 channels

  53. Channel layout : L R C LFE Ls Rs

  54. Sampling rate : 48.0 kHz

  55. Frame rate : 31.250 FPS (1536 SPF)

  56. Compression mode : Lossy

  57. Stream size : 400 MiB (4%)

  58. Title : German

  59. Language : German

  60. Service kind : Complete Main

  61. Default : No

  62. Forced : No


  63. Audio #2

  64. ID : 3

  65. Format : E-AC-3

  66. Format/Info : Enhanced AC-3

  67. Commercial name : Dolby Digital Plus

  68. Codec ID : A_EAC3

  69. Duration : 1 h 27 min

  70. Bit rate mode : Constant

  71. Bit rate : 640 kb/s

  72. Channel(s) : 6 channels

  73. Channel layout : L R C LFE Ls Rs

  74. Sampling rate : 48.0 kHz

  75. Frame rate : 31.250 FPS (1536 SPF)

  76. Compression mode : Lossy

  77. Stream size : 400 MiB (4%)

  78. Title : English

  79. Language : English

  80. Service kind : Complete Main

  81. Default : No

  82. Forced : No


  83. Audio #3

  84. ID : 4

  85. Format : E-AC-3

  86. Format/Info : Enhanced AC-3

  87. Commercial name : Dolby Digital Plus

  88. Codec ID : A_EAC3

  89. Duration : 1 h 27 min

  90. Bit rate mode : Constant

  91. Bit rate : 640 kb/s

  92. Channel(s) : 6 channels

  93. Channel layout : L R C LFE Ls Rs

  94. Sampling rate : 48.0 kHz

  95. Frame rate : 31.250 FPS (1536 SPF)

  96. Compression mode : Lossy

  97. Stream size : 400 MiB (4%)

  98. Title : English [Audio Description]

  99. Language : English

  100. Service kind : Complete Main

  101. Default : No

  102. Forced : No


  103. Audio #4

  104. ID : 5

  105. Format : E-AC-3

  106. Format/Info : Enhanced AC-3

  107. Commercial name : Dolby Digital Plus

  108. Codec ID : A_EAC3

  109. Duration : 1 h 27 min

  110. Bit rate mode : Constant

  111. Bit rate : 640 kb/s

  112. Channel(s) : 6 channels

  113. Channel layout : L R C LFE Ls Rs

  114. Sampling rate : 48.0 kHz

  115. Frame rate : 31.250 FPS (1536 SPF)

  116. Compression mode : Lossy

  117. Stream size : 400 MiB (4%)

  118. Title : Castilian

  119. Language : Spanish

  120. Service kind : Complete Main

  121. Default : No

  122. Forced : No


  123. Audio #5

  124. ID : 6

  125. Format : E-AC-3

  126. Format/Info : Enhanced AC-3

  127. Commercial name : Dolby Digital Plus

  128. Codec ID : A_EAC3

  129. Duration : 1 h 27 min

  130. Bit rate mode : Constant

  131. Bit rate : 640 kb/s

  132. Channel(s) : 6 channels

  133. Channel layout : L R C LFE Ls Rs

  134. Sampling rate : 48.0 kHz

  135. Frame rate : 31.250 FPS (1536 SPF)

  136. Compression mode : Lossy

  137. Stream size : 400 MiB (4%)

  138. Title : Spanish

  139. Language : Spanish

  140. Service kind : Complete Main

  141. Default : No

  142. Forced : No


  143. Audio #6

  144. ID : 7

  145. Format : E-AC-3

  146. Format/Info : Enhanced AC-3

  147. Commercial name : Dolby Digital Plus

  148. Codec ID : A_EAC3

  149. Duration : 1 h 27 min

  150. Bit rate mode : Constant

  151. Bit rate : 640 kb/s

  152. Channel(s) : 6 channels

  153. Channel layout : L R C LFE Ls Rs

  154. Sampling rate : 48.0 kHz

  155. Frame rate : 31.250 FPS (1536 SPF)

  156. Compression mode : Lossy

  157. Stream size : 400 MiB (4%)

  158. Title : French

  159. Language : French

  160. Service kind : Complete Main

  161. Default : No

  162. Forced : No


  163. Audio #7

  164. ID : 8

  165. Format : E-AC-3

  166. Format/Info : Enhanced AC-3

  167. Commercial name : Dolby Digital Plus

  168. Codec ID : A_EAC3

  169. Duration : 1 h 27 min

  170. Bit rate mode : Constant

  171. Bit rate : 640 kb/s

  172. Channel(s) : 6 channels

  173. Channel layout : L R C LFE Ls Rs

  174. Sampling rate : 48.0 kHz

  175. Frame rate : 31.250 FPS (1536 SPF)

  176. Compression mode : Lossy

  177. Stream size : 400 MiB (4%)

  178. Title : Italian

  179. Language : Italian

  180. Service kind : Complete Main

  181. Default : No

  182. Forced : No


  183. Audio #8

  184. ID : 9

  185. Format : E-AC-3

  186. Format/Info : Enhanced AC-3

  187. Commercial name : Dolby Digital Plus

  188. Codec ID : A_EAC3

  189. Duration : 1 h 27 min

  190. Bit rate mode : Constant

  191. Bit rate : 640 kb/s

  192. Channel(s) : 6 channels

  193. Channel layout : L R C LFE Ls Rs

  194. Sampling rate : 48.0 kHz

  195. Frame rate : 31.250 FPS (1536 SPF)

  196. Compression mode : Lossy

  197. Stream size : 400 MiB (4%)

  198. Title : Polish

  199. Language : Polish

  200. Service kind : Complete Main

  201. Default : No

  202. Forced : No


  203. Audio #9

  204. ID : 10

  205. Format : E-AC-3

  206. Format/Info : Enhanced AC-3

  207. Commercial name : Dolby Digital Plus

  208. Codec ID : A_EAC3

  209. Duration : 1 h 27 min

  210. Bit rate mode : Constant

  211. Bit rate : 640 kb/s

  212. Channel(s) : 6 channels

  213. Channel layout : L R C LFE Ls Rs

  214. Sampling rate : 48.0 kHz

  215. Frame rate : 31.250 FPS (1536 SPF)

  216. Compression mode : Lossy

  217. Stream size : 400 MiB (4%)

  218. Title : Portuguese

  219. Language : Portuguese

  220. Service kind : Complete Main

  221. Default : No

  222. Forced : No


  223. Audio #10

  224. ID : 11

  225. Format : E-AC-3

  226. Format/Info : Enhanced AC-3

  227. Commercial name : Dolby Digital Plus

  228. Codec ID : A_EAC3

  229. Duration : 1 h 27 min

  230. Bit rate mode : Constant

  231. Bit rate : 640 kb/s

  232. Channel(s) : 6 channels

  233. Channel layout : L R C LFE Ls Rs

  234. Sampling rate : 48.0 kHz

  235. Frame rate : 31.250 FPS (1536 SPF)

  236. Compression mode : Lossy

  237. Stream size : 400 MiB (4%)

  238. Title : Japanese

  239. Language : Japanese

  240. Service kind : Complete Main

  241. Default : No

  242. Forced : No


  243. Text #1

  244. ID : 12

  245. Format : UTF-8

  246. Codec ID : S_TEXT/UTF8

  247. Codec ID/Info : UTF-8 Plain Text

  248. Duration : 1 h 25 min

  249. Bit rate : 45 b/s

  250. Count of elements : 1105

  251. Stream size : 28.3 KiB (0%)

  252. Title : Malay

  253. Language : Malay

  254. Default : No

  255. Forced : No


  256. Text #2

  257. ID : 13

  258. Format : UTF-8

  259. Codec ID : S_TEXT/UTF8

  260. Codec ID/Info : UTF-8 Plain Text

  261. Duration : 1 h 25 min

  262. Bit rate : 47 b/s

  263. Count of elements : 1105

  264. Stream size : 29.9 KiB (0%)

  265. Title : Danish

  266. Language : Danish

  267. Default : No

  268. Forced : No


  269. Text #3

  270. ID : 14

  271. Format : UTF-8

  272. Codec ID : S_TEXT/UTF8

  273. Codec ID/Info : UTF-8 Plain Text

  274. Duration : 1 h 25 min

  275. Bit rate : 52 b/s

  276. Count of elements : 880

  277. Stream size : 33.1 KiB (0%)

  278. Title : German

  279. Language : German

  280. Default : No

  281. Forced : No


  282. Text #4

  283. ID : 15

  284. Format : UTF-8

  285. Codec ID : S_TEXT/UTF8

  286. Codec ID/Info : UTF-8 Plain Text

  287. Duration : 1 h 26 min

  288. Bit rate : 68 b/s

  289. Count of elements : 1553

  290. Stream size : 43.3 KiB (0%)

  291. Title : English (SDH)

  292. Language : English

  293. Default : No

  294. Forced : No


  295. Text #5

  296. ID : 16

  297. Format : UTF-8

  298. Codec ID : S_TEXT/UTF8

  299. Codec ID/Info : UTF-8 Plain Text

  300. Duration : 1 h 25 min

  301. Bit rate : 46 b/s

  302. Count of elements : 1105

  303. Stream size : 29.5 KiB (0%)

  304. Title : Castilian

  305. Language : Spanish

  306. Default : No

  307. Forced : No


  308. Text #6

  309. ID : 17

  310. Format : UTF-8

  311. Codec ID : S_TEXT/UTF8

  312. Codec ID/Info : UTF-8 Plain Text

  313. Duration : 1 h 25 min

  314. Bit rate : 46 b/s

  315. Count of elements : 1105

  316. Stream size : 28.9 KiB (0%)

  317. Title : Spanish

  318. Language : Spanish

  319. Default : No

  320. Forced : No


  321. Text #7

  322. ID : 18

  323. Format : UTF-8

  324. Codec ID : S_TEXT/UTF8

  325. Codec ID/Info : UTF-8 Plain Text

  326. Duration : 1 h 25 min

  327. Bit rate : 49 b/s

  328. Count of elements : 1089

  329. Stream size : 30.7 KiB (0%)

  330. Title : Filipino

  331. Language : fil

  332. Default : No

  333. Forced : No


  334. Text #8

  335. ID : 19

  336. Format : UTF-8

  337. Codec ID : S_TEXT/UTF8

  338. Codec ID/Info : UTF-8 Plain Text

  339. Duration : 1 h 25 min

  340. Bit rate : 51 b/s

  341. Count of elements : 1094

  342. Stream size : 32.1 KiB (0%)

  343. Title : French

  344. Language : French

  345. Default : No

  346. Forced : No


  347. Text #9

  348. ID : 20

  349. Format : UTF-8

  350. Codec ID : S_TEXT/UTF8

  351. Codec ID/Info : UTF-8 Plain Text

  352. Duration : 1 h 25 min

  353. Bit rate : 49 b/s

  354. Count of elements : 1106

  355. Stream size : 31.2 KiB (0%)

  356. Title : Indonesian

  357. Language : Indonesian

  358. Default : No

  359. Forced : No


  360. Text #10

  361. ID : 21

  362. Format : UTF-8

  363. Codec ID : S_TEXT/UTF8

  364. Codec ID/Info : UTF-8 Plain Text

  365. Duration : 1 h 25 min

  366. Bit rate : 45 b/s

  367. Count of elements : 1100

  368. Stream size : 28.3 KiB (0%)

  369. Title : Italian

  370. Language : Italian

  371. Default : No

  372. Forced : No


  373. Text #11

  374. ID : 22

  375. Format : UTF-8

  376. Codec ID : S_TEXT/UTF8

  377. Codec ID/Info : UTF-8 Plain Text

  378. Duration : 1 h 25 min

  379. Bit rate : 54 b/s

  380. Count of elements : 1107

  381. Stream size : 33.9 KiB (0%)

  382. Title : Hungarian

  383. Language : Hungarian

  384. Default : No

  385. Forced : No


  386. Text #12

  387. ID : 23

  388. Format : UTF-8

  389. Codec ID : S_TEXT/UTF8

  390. Codec ID/Info : UTF-8 Plain Text

  391. Duration : 1 h 25 min

  392. Bit rate : 45 b/s

  393. Count of elements : 1101

  394. Stream size : 28.4 KiB (0%)

  395. Title : Dutch

  396. Language : Dutch

  397. Default : No

  398. Forced : No


  399. Text #13

  400. ID : 24

  401. Format : UTF-8

  402. Codec ID : S_TEXT/UTF8

  403. Codec ID/Info : UTF-8 Plain Text

  404. Duration : 1 h 25 min

  405. Bit rate : 43 b/s

  406. Count of elements : 1107

  407. Stream size : 27.6 KiB (0%)

  408. Title : Norwegian

  409. Language : Norwegian Bokmal

  410. Default : No

  411. Forced : No


  412. Text #14

  413. ID : 25

  414. Format : UTF-8

  415. Codec ID : S_TEXT/UTF8

  416. Codec ID/Info : UTF-8 Plain Text

  417. Duration : 1 h 25 min

  418. Bit rate : 43 b/s

  419. Count of elements : 1090

  420. Stream size : 27.4 KiB (0%)

  421. Title : Polish

  422. Language : Polish

  423. Default : No

  424. Forced : No


  425. Text #15

  426. ID : 26

  427. Format : UTF-8

  428. Codec ID : S_TEXT/UTF8

  429. Codec ID/Info : UTF-8 Plain Text

  430. Duration : 1 h 25 min

  431. Bit rate : 48 b/s

  432. Count of elements : 1106

  433. Stream size : 30.3 KiB (0%)

  434. Title : Portuguese (Brasil)

  435. Language : Portuguese

  436. Default : No

  437. Forced : No


  438. Text #16

  439. ID : 27

  440. Format : UTF-8

  441. Codec ID : S_TEXT/UTF8

  442. Codec ID/Info : UTF-8 Plain Text

  443. Duration : 1 h 25 min

  444. Bit rate : 46 b/s

  445. Count of elements : 1105

  446. Stream size : 28.9 KiB (0%)

  447. Title : Portuguese (Portugal)

  448. Language : Portuguese

  449. Default : No

  450. Forced : No


  451. Text #17

  452. ID : 28

  453. Format : UTF-8

  454. Codec ID : S_TEXT/UTF8

  455. Codec ID/Info : UTF-8 Plain Text

  456. Duration : 1 h 25 min

  457. Bit rate : 51 b/s

  458. Count of elements : 1106

  459. Stream size : 32.5 KiB (0%)

  460. Title : Romanian

  461. Language : Romanian

  462. Default : No

  463. Forced : No


  464. Text #18

  465. ID : 29

  466. Format : UTF-8

  467. Codec ID : S_TEXT/UTF8

  468. Codec ID/Info : UTF-8 Plain Text

  469. Duration : 1 h 25 min

  470. Bit rate : 47 b/s

  471. Count of elements : 1090

  472. Stream size : 29.5 KiB (0%)

  473. Title : Finnish

  474. Language : Finnish

  475. Default : No

  476. Forced : No


  477. Text #19

  478. ID : 30

  479. Format : UTF-8

  480. Codec ID : S_TEXT/UTF8

  481. Codec ID/Info : UTF-8 Plain Text

  482. Duration : 1 h 25 min

  483. Bit rate : 48 b/s

  484. Count of elements : 1101

  485. Stream size : 30.2 KiB (0%)

  486. Title : Swedish

  487. Language : Swedish

  488. Default : No

  489. Forced : No


  490. Text #20

  491. ID : 31

  492. Format : UTF-8

  493. Codec ID : S_TEXT/UTF8

  494. Codec ID/Info : UTF-8 Plain Text

  495. Duration : 1 h 25 min

  496. Bit rate : 48 b/s

  497. Count of elements : 1105

  498. Stream size : 30.7 KiB (0%)

  499. Title : Turkish

  500. Language : Turkish

  501. Default : No

  502. Forced : No


  503. Text #21

  504. ID : 32

  505. Format : UTF-8

  506. Codec ID : S_TEXT/UTF8

  507. Codec ID/Info : UTF-8 Plain Text

  508. Duration : 1 h 25 min

  509. Bit rate : 48 b/s

  510. Count of elements : 1105

  511. Stream size : 30.4 KiB (0%)

  512. Title : Czech

  513. Language : Czech

  514. Default : No

  515. Forced : No


  516. Text #22

  517. ID : 33

  518. Format : UTF-8

  519. Codec ID : S_TEXT/UTF8

  520. Codec ID/Info : UTF-8 Plain Text

  521. Duration : 1 h 25 min

  522. Bit rate : 84 b/s

  523. Count of elements : 1106

  524. Stream size : 52.7 KiB (0%)

  525. Title : Greek

  526. Language : Greek

  527. Default : No

  528. Forced : No


  529. Text #23

  530. ID : 34

  531. Format : UTF-8

  532. Codec ID : S_TEXT/UTF8

  533. Codec ID/Info : UTF-8 Plain Text

  534. Duration : 1 h 25 min

  535. Bit rate : 79 b/s

  536. Count of elements : 1106

  537. Stream size : 50.0 KiB (0%)

  538. Title : Russian

  539. Language : Russian

  540. Default : No

  541. Forced : No


  542. Text #24

  543. ID : 35

  544. Format : UTF-8

  545. Codec ID : S_TEXT/UTF8

  546. Codec ID/Info : UTF-8 Plain Text

  547. Duration : 1 h 25 min

  548. Bit rate : 80 b/s

  549. Count of elements : 1106

  550. Stream size : 50.3 KiB (0%)

  551. Title : Hebrew

  552. Language : Hebrew

  553. Default : No

  554. Forced : No


  555. Text #25

  556. ID : 36

  557. Format : UTF-8

  558. Codec ID : S_TEXT/UTF8

  559. Codec ID/Info : UTF-8 Plain Text

  560. Duration : 1 h 25 min

  561. Bit rate : 82 b/s

  562. Count of elements : 1105

  563. Stream size : 51.9 KiB (0%)

  564. Title : Arabic

  565. Language : Arabic

  566. Default : No

  567. Forced : No


  568. Text #26

  569. ID : 37

  570. Format : UTF-8

  571. Codec ID : S_TEXT/UTF8

  572. Codec ID/Info : UTF-8 Plain Text

  573. Duration : 1 h 25 min

  574. Bit rate : 123 b/s

  575. Count of elements : 1106

  576. Stream size : 77.6 KiB (0%)

  577. Title : Hindi

  578. Language : Hindi

  579. Default : No

  580. Forced : No


  581. Text #27

  582. ID : 38

  583. Format : UTF-8

  584. Codec ID : S_TEXT/UTF8

  585. Codec ID/Info : UTF-8 Plain Text

  586. Duration : 1 h 25 min

  587. Bit rate : 133 b/s

  588. Count of elements : 1107

  589. Stream size : 84.0 KiB (0%)

  590. Title : Tamil

  591. Language : Tamil

  592. Default : No

  593. Forced : No


  594. Text #28

  595. ID : 39

  596. Format : UTF-8

  597. Codec ID : S_TEXT/UTF8

  598. Codec ID/Info : UTF-8 Plain Text

  599. Duration : 1 h 25 min

  600. Bit rate : 116 b/s

  601. Count of elements : 1105

  602. Stream size : 73.3 KiB (0%)

  603. Title : Telugu

  604. Language : Telugu

  605. Default : No

  606. Forced : No


  607. Text #29

  608. ID : 40

  609. Format : UTF-8

  610. Codec ID : S_TEXT/UTF8

  611. Codec ID/Info : UTF-8 Plain Text

  612. Duration : 1 h 25 min

  613. Bit rate : 122 b/s

  614. Count of elements : 1106

  615. Stream size : 77.1 KiB (0%)

  616. Title : Thai

  617. Language : Thai

  618. Default : No

  619. Forced : No


  620. Text #30

  621. ID : 41

  622. Format : UTF-8

  623. Codec ID : S_TEXT/UTF8

  624. Codec ID/Info : UTF-8 Plain Text

  625. Duration : 1 h 25 min

  626. Bit rate : 49 b/s

  627. Count of elements : 1106

  628. Stream size : 30.9 KiB (0%)

  629. Title : Chinese (Simplified)

  630. Language : Chinese

  631. Default : No

  632. Forced : No


  633. Text #31

  634. ID : 42

  635. Format : UTF-8

  636. Codec ID : S_TEXT/UTF8

  637. Codec ID/Info : UTF-8 Plain Text

  638. Duration : 1 h 25 min

  639. Bit rate : 46 b/s

  640. Count of elements : 1105

  641. Stream size : 29.0 KiB (0%)

  642. Title : Chinese (Traditional)

  643. Language : Chinese

  644. Default : No

  645. Forced : No


  646. Text #32

  647. ID : 43

  648. Format : UTF-8

  649. Codec ID : S_TEXT/UTF8

  650. Codec ID/Info : UTF-8 Plain Text

  651. Duration : 1 h 25 min

  652. Bit rate : 42 b/s

  653. Count of elements : 973

  654. Stream size : 26.5 KiB (0%)

  655. Title : Japanese

  656. Language : Japanese

  657. Default : No

  658. Forced : No


  659. Text #33

  660. ID : 44

  661. Format : UTF-8

  662. Codec ID : S_TEXT/UTF8

  663. Codec ID/Info : UTF-8 Plain Text

  664. Duration : 1 h 25 min

  665. Bit rate : 57 b/s

  666. Count of elements : 1106

  667. Stream size : 35.8 KiB (0%)

  668. Title : Korean

  669. Language : Korean

  670. Default : No

  671. Forced : No


文件下载


除非特别注明,本文『暗黑之夜[中文字幕].Black.As.Night.1080p.AMZN.WEB-DL.DDP5.1.H.264 9.01GB』来源于互联网机器人自动抓取,非本站原创。 浮游电影网不对本文拥有版权,如有侵犯,请联系邮箱:fuyouu#yandex.com[#换成@]投诉。我们会在15个工作日内删除。 但烦请转载时请标明出处:“本文转载于『浮游电影网』,原文地址:https://www.fuyouu.com/14827.html

评论吧骚年!

发表你的见解   

昵称*

E-mail*(建议输入,以便收到博主回复的提示邮件)

验证码*

您可以使用eMule或eMule Mod(Windows)、aMule(Win、Linux、Mac)等软件下载eD2k链接。。
eMule收藏集(.emulecollection)文件是您选中的所有链接的列表文件。eMule可以直接下载它们。
按住SHIFT键选择可以选中多个选择框。
可用文件名和大小选择器来选择文件。
文件名选择器帮您根据文件名称或后缀来选择文件。不分大小写。
符号使用:
和:空格( )、+
不包含:-
或:|
转义:一对英文引号("");
匹配开头:^
匹配结尾:$
例如:
选中所有名称中包含有“eMule”或“0.49c”字眼,但不包含有“exe”字眼的:emule|0.49c -exe
选中所有名称的开头是“eMule”,结尾是“0.49c”的:^emule 0.49c$
选中所有名称中带有“eMule 0.49c”的(必须是“eMule 0.49c”,中间没有别的字符,不能是“eMule fake 0.49c”),需要转义:"emule 0.49c"
大小选择器帮您根据文件大小选择文件。