当前位置: 首页 >> 欧美电影 >> 王牌保安[中文字幕].Security.2017.1080p.NF.WEB-DL.DDP5.1.x264 2.02GB >> 正文

王牌保安[中文字幕].Security.2017.1080p.NF.WEB-DL.DDP5.1.x264 2.02GB

2021年10月09日 10:12:54     电影发布:来源于网络     电影分类:欧美电影     评论(0)    

王牌保安[中文字幕].Security.2017.1080p.NF.WEB DL.DDP5.1.x264 2.02GB 犯罪片 惊悚片 动作片 欧美电影  第1张

◎译 名 王牌保安 / 保安

◎片 名 Security

◎年 代 2017

◎产 地 美国

◎类 别 动作 / 惊悚 / 犯罪

◎语 言 英语

◎上映日期 2017-03-04(日本) / 2017-07-03(英国-DVD蓝光)

◎IMDb链接 https://www.imdb.com/title/tt3501112/

◎豆瓣评分 5.5/10 (1987人评价)

◎豆瓣链接 https://movie.douban.com/subject/26732578/

◎片 长 87分钟

◎导 演 艾朗·德罗榭 Alain Desrochers (id:1380299)

◎编 剧 托尼·莫舍 Tony Mosher (id:1309259)

约翰·沙利文 John Sullivan (id:1180202)

◎演 员 安东尼奥·班德拉斯 Antonio Banderas (id:1022582)

本·金斯利 Ben Kingsley (id:1054393)

连姆·麦肯泰尔 Liam McIntyre (id:1229519)

加布里埃拉·赖特 Gabriella Wright (id:1352456)

查德·林德伯格 Chad Lindberg (id:1116028)

雅娜·梅里诺娃 Yana Marinova (id:1380300)

黎烈弓 Cung Le (id:1313810)

汪东城 Jiro Wang (id:1275869)

马克·史密斯 Mark Rhino Smith (id:1175204)

巴沙尔·拉海尔 Bashar Rahal (id:1140666)

◎标 签 动作 / 美国 / 犯罪 / 枪战 / 2017 / 警匪 / 黑帮 / 暴力

◎简 介

影片故事讲述退伍老兵(安东尼奥·班德拉斯饰)在一个购物商场当保安,然而他工作的首晚,一个被歹徒追击的女孩跑到商场寻求庇护。该片北美预计今年上映。

  1. ##### MediaInfo ######

  2. General

  3. Unique ID : 287853254948969989015963173911033707400 (0xD88E85345157D72FC19D363490127B88)

  4. Complete name : [email protected]

  5. Format : Matroska

  6. Format version : Version 4

  7. File size : 2.02 GiB

  8. Duration : 1 h 31 min

  9. Overall bit rate mode : Variable

  10. Overall bit rate : 3 144 kb/s

  11. Encoded date : UTC 2021-10-08 12:10:34

  12. Writing application : mkvmerge v61.0.0 ('So') 64-bit

  13. Writing library : libebml v1.4.2 + libmatroska v1.6.4


  14. Video

  15. ID : 1

  16. Format : AVC

  17. Format/Info : Advanced Video Codec

  18. Format profile : [email protected]

  19. Format settings : CABAC / 4 Ref Frames

  20. Format settings, CABAC : Yes

  21. Format settings, Reference frames : 4 frames

  22. Codec ID : V_MPEG4/ISO/AVC

  23. Duration : 1 h 31 min

  24. Bit rate mode : Variable

  25. Bit rate : 2 374 kb/s

  26. Maximum bit rate : 20.0 Mb/s

  27. Width : 1 920 pixels

  28. Height : 1 080 pixels

  29. Display aspect ratio : 16:9

  30. Frame rate mode : Constant

  31. Frame rate : 23.976 (24000/1001/53354) FPS

  32. Color space : YUV

  33. Chroma subsampling : 4:2:0

  34. Bit depth : 8 bits

  35. Scan type : Progressive

  36. Bits/(Pixel*Frame) : 0.048

  37. Stream size : 1.52 GiB (75%)

  38. Writing library : x264 core 148 r2715 7e75228

  39. Encoding settings : cabac=1 / ref=4 / deblock=1:0:0 / analyse=0x3:0x111 / me=umh / subme=10 / psy=1 / psy_rd=1.00:0.00 / mixed_ref=1 / me_range=120 / chroma_me=1 / trellis=2 / 8x8dct=1 / cqm=0 / deadzone=21,11 / fast_pskip=1 / chroma_qp_offset=-2 / threads=6 / lookahead_threads=1 / sliced_threads=0 / nr=0 / decimate=1 / interlaced=0 / NTMzNTQ= / bluray_compat=0 / stitchable=1 / constrained_intra=0 / bframes=16 / b_pyramid=2 / b_adapt=2 / b_bias=0 / direct=3 / weightb=1 / open_gop=0 / weightp=2 / keyint=240 / keyint_min=121 / scenecut=0 / intra_refresh=0 / rc_lookahead=240 / rc=crf / mbtree=1 / crf=16.0 / qcomp=0.50 / qpmin=6 / qpmax=51 / qpstep=4 / vbv_maxrate=20000 / vbv_bufsize=25000 / crf_max=0.0 / nal_hrd=vbr / filler=0 / NTMzNTQ=LmsMAP37EqsCpk / ip_ratio=1.40 / aq=1:0.80

  40. Default : Yes

  41. Forced : No


  42. Audio #1

  43. ID : 2

  44. Format : E-AC-3

  45. Format/Info : Enhanced AC-3

  46. Commercial name : Dolby Digital Plus

  47. Codec ID : A_EAC3

  48. Duration : 1 h 31 min

  49. Bit rate mode : Constant

  50. Bit rate : 640 kb/s

  51. Channel(s) : 6 channels

  52. Channel layout : L R C LFE Ls Rs

  53. Sampling rate : 48.0 kHz

  54. Frame rate : 31.250 FPS (1536 SPF)

  55. Compression mode : Lossy

  56. Stream size : 421 MiB (20%)

  57. Language : English

  58. Service kind : Complete Main

  59. Default : Yes

  60. Forced : No


  61. Audio #2

  62. ID : 3

  63. Format : E-AC-3

  64. Format/Info : Enhanced AC-3

  65. Commercial name : Dolby Digital Plus

  66. Codec ID : A_EAC3

  67. Duration : 1 h 31 min

  68. Bit rate mode : Constant

  69. Bit rate : 128 kb/s

  70. Channel(s) : 2 channels

  71. Channel layout : L R

  72. Sampling rate : 48.0 kHz

  73. Frame rate : 31.250 FPS (1536 SPF)

  74. Compression mode : Lossy

  75. Stream size : 84.2 MiB (4%)

  76. Language : English

  77. Service kind : Complete Main

  78. Default : Yes

  79. Forced : No


  80. Text #1

  81. ID : 4

  82. Format : UTF-8

  83. Codec ID : S_TEXT/UTF8

  84. Codec ID/Info : UTF-8 Plain Text

  85. Duration : 1 h 30 min

  86. Bit rate : 35 b/s

  87. Count of elements : 1046

  88. Stream size : 23.3 KiB (0%)

  89. Title : 简体中文

  90. Language : Chinese

  91. Default : Yes

  92. Forced : No


  93. Text #2

  94. ID : 5

  95. Format : UTF-8

  96. Codec ID : S_TEXT/UTF8

  97. Codec ID/Info : UTF-8 Plain Text

  98. Duration : 1 h 30 min

  99. Bit rate : 37 b/s

  100. Count of elements : 1046

  101. Stream size : 24.9 KiB (0%)

  102. Title : 繁体中文

  103. Language : Chinese

  104. Default : Yes

  105. Forced : No


  106. Text #3

  107. ID : 6

  108. Format : UTF-8

  109. Codec ID : S_TEXT/UTF8

  110. Codec ID/Info : UTF-8 Plain Text

  111. Duration : 1 h 30 min

  112. Bit rate : 34 b/s

  113. Count of elements : 987

  114. Stream size : 23.0 KiB (0%)

  115. Title : 日语

  116. Language : Japanese

  117. Default : Yes

  118. Forced : No


  119. Text #4

  120. ID : 7

  121. Format : UTF-8

  122. Codec ID : S_TEXT/UTF8

  123. Codec ID/Info : UTF-8 Plain Text

  124. Duration : 1 h 30 min

  125. Bit rate : 45 b/s

  126. Count of elements : 1046

  127. Stream size : 30.4 KiB (0%)

  128. Title : 韩语

  129. Language : Korean

  130. Default : Yes

  131. Forced : No




复制代码



文件下载


除非特别注明,本文『王牌保安[中文字幕].Security.2017.1080p.NF.WEB-DL.DDP5.1.x264 2.02GB』来源于互联网机器人自动抓取,非本站原创。 浮游电影网不对本文拥有版权,如有侵犯,请联系邮箱:fuyouu#yandex.com[#换成@]投诉。我们会在15个工作日内删除。 但烦请转载时请标明出处:“本文转载于『浮游电影网』,原文地址:https://www.fuyouu.com/14826.html

评论吧骚年!

发表你的见解   

昵称*

E-mail*(建议输入,以便收到博主回复的提示邮件)

验证码*

您可以使用eMule或eMule Mod(Windows)、aMule(Win、Linux、Mac)等软件下载eD2k链接。。
eMule收藏集(.emulecollection)文件是您选中的所有链接的列表文件。eMule可以直接下载它们。
按住SHIFT键选择可以选中多个选择框。
可用文件名和大小选择器来选择文件。
文件名选择器帮您根据文件名称或后缀来选择文件。不分大小写。
符号使用:
和:空格( )、+
不包含:-
或:|
转义:一对英文引号("");
匹配开头:^
匹配结尾:$
例如:
选中所有名称中包含有“eMule”或“0.49c”字眼,但不包含有“exe”字眼的:emule|0.49c -exe
选中所有名称的开头是“eMule”,结尾是“0.49c”的:^emule 0.49c$
选中所有名称中带有“eMule 0.49c”的(必须是“eMule 0.49c”,中间没有别的字符,不能是“eMule fake 0.49c”),需要转义:"emule 0.49c"
大小选择器帮您根据文件大小选择文件。