当前位置: 首页 >> 国产电影 >> 半条棉被[国语配音/中文字幕].Heaart.for.Heart.2020.1080p.WEB-DL.H264.MPEG 4.88GB >> 正文

半条棉被[国语配音/中文字幕].Heaart.for.Heart.2020.1080p.WEB-DL.H264.MPEG 4.88GB

2021年10月09日 10:11:38     电影发布:来源于网络     电影分类:国产电影     评论(0)    

半条棉被[国语配音/中文字幕].Heaart.for.Heart.2020.1080p.WEB DL.H264.MPEG 4.88GB 战争片 国产电影  第1张

◎译 名 半条棉被 / Heaart for Heart

◎年 代 2020

◎产 地 中国大陆

◎类 别 战争

◎语 言 汉语普通话

◎上映日期 2020-12-07(中国大陆) / 2020-09-04(湖南地区)

◎IMDb链接 https://www.imdb.com/title//

◎豆瓣评分 5.2/10 (524人评价)

◎豆瓣链接 https://movie.douban.com/subject/33441927/

◎片 长 97分钟

◎导 演 孟奇 Qi Meng (id:1324288)

◎演 员 陶慧 Hui Tao (id:1341176)

童蕾 Lei Tong (id:1275723)

◎标 签 红色电影 / 主旋律 / 爱国 / 爱党 / 国产电影 / 长征 / 战争 / 中国电影

◎简 介

1934年10月,中央红军第五次反围剿失败,为摆脱国民党军队的包围追击,被迫实行战略性转移,撤出中央苏区。在转移的途中,面对着地上几十万敌军的围追堵截和天上敌机的狂轰滥炸,英勇的红军一次次从血路中杀出,在一次又一次的突围当中在湖南汝城县沙洲村,3名女红军借宿徐解秀老人家中,临走时,把自己仅有的一床被子剪下一半给老人留下了。老人说,什么是共产党?共产党就是自己有一条被子,也要剪下半条给老百姓的人......

  1. ##### MediaInfo ######

  2. General

  3. Complete name : 半条棉被[email protected]p4

  4. Format : MPEG-4

  5. Format profile : Base Media

  6. Codec ID : isom (isom/iso2/avc1/mp41)

  7. File size : 4.88 GiB

  8. Duration : 1 h 37 min

  9. Overall bit rate mode : Constant

  10. Overall bit rate : 7 198 kb/s

  11. Writing application : Lavf58.19.100


  12. Video

  13. ID : 1

  14. Format : AVC

  15. Format/Info : Advanced Video Codec

  16. Format profile : [email protected]

  17. Format settings : CABAC / 1 Ref Frames

  18. Format settings, CABAC : Yes

  19. Format settings, Reference frames : 1 frame

  20. Format settings, GOP : M=1, N=25

  21. Codec ID : avc1

  22. Codec ID/Info : Advanced Video Coding

  23. Duration : 1 h 37 min

  24. Bit rate mode : Constant

  25. Bit rate : 7 000 kb/s

  26. Width : 1 920 pixels

  27. Height : 1 080 pixels

  28. Display aspect ratio : 16:9

  29. Frame rate mode : Constant

  30. Frame rate : 25.000 FPS

  31. Standard : Component

  32. Color space : YUV

  33. Chroma subsampling : 4:2:0

  34. Bit depth : 8 bits

  35. Scan type : Progressive

  36. Bits/(Pixel*Frame) : 0.135

  37. Stream size : 4.74 GiB (97%)

  38. Writing library : 2.3.58544.674002

  39. Color range : Limited

  40. Codec configuration box : avcC


  41. Audio

  42. ID : 2

  43. Format : MPEG Audio

  44. Format version : Version 1

  45. Format profile : Layer 2

  46. Codec ID : mp4a-6B

  47. Duration : 1 h 37 min

  48. Bit rate mode : Constant

  49. Bit rate : 192 kb/s

  50. Channel(s) : 2 channels

  51. Sampling rate : 48.0 kHz

  52. Compression mode : Lossy

  53. Stream size : 133 MiB (3%)

  54. Default : Yes

  55. Alternate group : 1




复制代码



文件下载


除非特别注明,本文『半条棉被[国语配音/中文字幕].Heaart.for.Heart.2020.1080p.WEB-DL.H264.MPEG 4.88GB』来源于互联网机器人自动抓取,非本站原创。 浮游电影网不对本文拥有版权,如有侵犯,请联系邮箱:fuyouu#yandex.com[#换成@]投诉。我们会在15个工作日内删除。 但烦请转载时请标明出处:“本文转载于『浮游电影网』,原文地址:https://www.fuyouu.com/14825.html

评论吧骚年!

发表你的见解   

昵称*

E-mail*(建议输入,以便收到博主回复的提示邮件)

验证码*

您可以使用eMule或eMule Mod(Windows)、aMule(Win、Linux、Mac)等软件下载eD2k链接。。
eMule收藏集(.emulecollection)文件是您选中的所有链接的列表文件。eMule可以直接下载它们。
按住SHIFT键选择可以选中多个选择框。
可用文件名和大小选择器来选择文件。
文件名选择器帮您根据文件名称或后缀来选择文件。不分大小写。
符号使用:
和:空格( )、+
不包含:-
或:|
转义:一对英文引号("");
匹配开头:^
匹配结尾:$
例如:
选中所有名称中包含有“eMule”或“0.49c”字眼,但不包含有“exe”字眼的:emule|0.49c -exe
选中所有名称的开头是“eMule”,结尾是“0.49c”的:^emule 0.49c$
选中所有名称中带有“eMule 0.49c”的(必须是“eMule 0.49c”,中间没有别的字符,不能是“eMule fake 0.49c”),需要转义:"emule 0.49c"
大小选择器帮您根据文件大小选择文件。