当前位置: 首页 >> 国产电影 >> 冰血长津湖[国语配音/中文字幕].Frozen.Chosin.2011.1080p.WEB-DL.H265.DDP2.0 3.17GB >> 正文

冰血长津湖[国语配音/中文字幕].Frozen.Chosin.2011.1080p.WEB-DL.H265.DDP2.0 3.17GB

2021年10月09日 10:04:52     电影发布:来源于网络     电影分类:国产电影     评论(0)    

冰血长津湖[国语配音/中文字幕].Frozen.Chosin.2011.1080p.WEB DL.H265.DDP2.0 3.17GB 纪录片 国产电影  第1张

◎译 名 冰血长津湖 / Frozen Chosin

◎年 代 2011

◎产 地 中国大陆

◎类 别 纪录片

◎语 言 汉语普通话

◎上映日期 2011-06-01(中国大陆)

◎IMDb链接 https://www.imdb.com/title/tt10168044/

◎豆瓣评分 9.1/10 (3527人评价)

◎豆瓣链接 https://movie.douban.com/subject/6129689/

◎片 长 95分钟

◎导 演 颜品 Pin Yan (id:1416695)

付勇 Yong Fu (id:1414942)

刘治寰 Zhihuan Liu (id:1416734)

◎编 剧 王佐 Zuo Wang (id:1416854)

颜品 Pin Yan (id:1416695)

◎演 员 明振江 Zhenjiang Ming (id:1333046)

黄宏 Hong Huang (id:1313875)

董兴喜 Xingxi Dong (id:1416732)

吴英杰 Yingjie Wu (id:1416701)

刘立兵 Libin Liu (id:1416729)

王乐文 Lewen Wang (id:1332951)

◎标 签 纪录片 / 抗美援朝 / 长津湖 / 朝鲜战争 / 战争 / 志愿军 / 历史 / 中国

◎简 介

八一电影制片厂出品的纪录片,长津湖之战为抗美援朝第二次战役的东部战线,是朝鲜战争中最惨烈的一次战役。当时,志愿军九兵团以16万优势兵力在朝鲜东北部的长津湖地区成功分割包围了美军陆战1师和步兵第7师一部共约3万人。但由于严寒、补给不足、火力差距和美军空中优势等原因,志愿军未能达成全歼陆战1师战役目的,并付出了伤亡6万余人的惨重代价。陆战1师的惊险生还也使美国军政高层信心大增,最终确立了继续将朝鲜战争持续下去的决心。

◎获奖情况 (共2项)

第29届中国电影金鸡奖 (2013)

最佳纪录片

第15届中国电影华表奖 (2013)

优秀纪录片奖

  1. ##### MediaInfo ######

  2. General

  3. Complete name : 冰血长津湖[email protected]4

  4. Format : MPEG-4

  5. Format profile : Base Media

  6. Codec ID : isom (isom/iso2/mp41)

  7. File size : 3.17 GiB

  8. Duration : 1 h 34 min

  9. Overall bit rate : 4 777 kb/s

  10. Writing application : OurTV Multimedia Platform


  11. Video

  12. ID : 1

  13. Format : HEVC

  14. Format/Info : High Efficiency Video Coding

  15. Format profile : [email protected]@High

  16. Codec ID : hev1

  17. Codec ID/Info : High Efficiency Video Coding

  18. Duration : 1 h 34 min

  19. Bit rate : 4 483 kb/s

  20. Width : 1 920 pixels

  21. Height : 1 080 pixels

  22. Display aspect ratio : 16:9

  23. Frame rate mode : Constant

  24. Frame rate : 24.000 FPS

  25. Color space : YUV

  26. Chroma subsampling : 4:2:0

  27. Bit depth : 8 bits

  28. Bits/(Pixel*Frame) : 0.090

  29. Stream size : 2.97 GiB (94%)

  30. Codec configuration box : hvcC


  31. Audio #1

  32. ID : 2

  33. Format : E-AC-3

  34. Format/Info : Enhanced AC-3

  35. Commercial name : Dolby Digital Plus

  36. Codec ID : ec-3

  37. Duration : 1 h 34 min

  38. Bit rate mode : Constant

  39. Bit rate : 96.0 kb/s

  40. Channel(s) : 2 channels

  41. Channel layout : L R

  42. Sampling rate : 48.0 kHz

  43. Frame rate : 31.250 FPS (1536 SPF)

  44. Compression mode : Lossy

  45. Stream size : 65.2 MiB (2%)

  46. Title : 国语DDP2.0

  47. Language : Chinese

  48. Service kind : Complete Main

  49. Default : Yes

  50. Alternate group : 1


  51. Audio #2

  52. ID : 3

  53. Format : AAC LC

  54. Format/Info : Advanced Audio Codec Low Complexity

  55. Codec ID : mp4a-40-2

  56. Duration : 1 h 34 min

  57. Bit rate mode : Constant

  58. Bit rate : 192 kb/s

  59. Channel(s) : 2 channels

  60. Channel layout : L R

  61. Sampling rate : 44.1 kHz

  62. Frame rate : 43.066 FPS (1024 SPF)

  63. Compression mode : Lossy

  64. Stream size : 129 MiB (4%)

  65. Language : Chinese

  66. Default : No

  67. Alternate group : 1




复制代码



文件下载


除非特别注明,本文『冰血长津湖[国语配音/中文字幕].Frozen.Chosin.2011.1080p.WEB-DL.H265.DDP2.0 3.17GB』来源于互联网机器人自动抓取,非本站原创。 浮游电影网不对本文拥有版权,如有侵犯,请联系邮箱:fuyouu#yandex.com[#换成@]投诉。我们会在15个工作日内删除。 但烦请转载时请标明出处:“本文转载于『浮游电影网』,原文地址:https://www.fuyouu.com/14820.html

评论吧骚年!

发表你的见解   

昵称*

E-mail*(建议输入,以便收到博主回复的提示邮件)

验证码*

您可以使用eMule或eMule Mod(Windows)、aMule(Win、Linux、Mac)等软件下载eD2k链接。。
eMule收藏集(.emulecollection)文件是您选中的所有链接的列表文件。eMule可以直接下载它们。
按住SHIFT键选择可以选中多个选择框。
可用文件名和大小选择器来选择文件。
文件名选择器帮您根据文件名称或后缀来选择文件。不分大小写。
符号使用:
和:空格( )、+
不包含:-
或:|
转义:一对英文引号("");
匹配开头:^
匹配结尾:$
例如:
选中所有名称中包含有“eMule”或“0.49c”字眼,但不包含有“exe”字眼的:emule|0.49c -exe
选中所有名称的开头是“eMule”,结尾是“0.49c”的:^emule 0.49c$
选中所有名称中带有“eMule 0.49c”的(必须是“eMule 0.49c”,中间没有别的字符,不能是“eMule fake 0.49c”),需要转义:"emule 0.49c"
大小选择器帮您根据文件大小选择文件。