当前位置: 首页 >> 国产电影 >> 无人区[国语配音/中文字幕].No.Man's.Land.2013.1080p.BluRay.x265.10bit.DTS 8.41GB >> 正文

无人区[国语配音/中文字幕].No.Man's.Land.2013.1080p.BluRay.x265.10bit.DTS 8.41GB

2021年10月09日 10:00:47     电影发布:来源于网络     电影分类:国产电影     评论(0)    

无人区[国语配音/中文字幕].No.Mans.Land.2013.1080p.BluRay.x265.10bit.DTS 8.41GB 西部 犯罪片 剧情片 国产电影  第1张

◎译 名 无人区 / No Man's Land / Western Sunshine

◎年 代 2013

◎产 地 中国大陆

◎类 别 剧情 / 犯罪 / 西部

◎语 言 汉语普通话 / 陕西方言 / 甘肃方言

◎上映日期 2013-12-03(中国大陆)

◎IMDb链接 https://www.imdb.com/title/tt1456660/

◎豆瓣评分 8.3/10 (462399人评价)

◎豆瓣链接 https://movie.douban.com/subject/3804891/

◎片 长 117分钟

◎导 演 宁浩 Hao Ning (id:1274265)

◎编 剧 述平 Shuping (id:1275245)

邢爱娜 Aina Xing (id:1312749)

崔斯韦 Siwei Cui (id:1328313)

王红卫 Hongwei Wang (id:1331159)

尚可 Ke Shang (id:1336247)

宁浩 Hao Ning (id:1274265)

黄海 Hai Huang (id:1353891)

◎演 员 徐峥 Zheng Xu (id:1274297)

黄渤 Bo Huang (id:1274242)

余男 Nan Yu (id:1050430)

多布杰 Duobujie (id:1308818)

王双宝 Shuangbao Wang (id:1275977)

巴多 Duo Ba (id:1315506)

杨新鸣 Xinming Yang (id:1275510)

郭虹 Hong Guo (id:1336639)

陶虹 Hong Tao (id:1015199)

黄精一 Jingyi Huang (id:1328656)

赵虎 Hu Zhao (id:1372057)

王佩 Pei Wang (id:1397508)

宁浩 Hao Ning (id:1274265)

艾尼瓦尔·乌甫尔 Anvar Hupur (id:1397779)

利雅博 Albert Lee (id:1326683)

韩三平 Sanping Han (id:1274843)

张国立 Guoli Zhang (id:1015115)

宁浩 Hao Ning (id:1274265)

王宗贤 Nathan Wang (id:1331828)

姜勇军 Yongjun Jiang (id:1331829)

陈曦 Xi Chen (id:1352481)

董冬冬 Dongdong Dong (id:1348747)

杜杰 Jie Du (id:1309338)

郝艺 Yi Hao (id:1316581)

杨虹 (id:1445705)

刘晓莎 Xiaosha Liu (id:1425018)

王砚伟 Yanwei Wang (id:1400192)

罗礼贤 Bruce Law (id:1289542)

◎标 签 黑色幽默 / 人性 / 犯罪 / 无人区 / 剧情 / 黑色 / 西部 / 2013

◎简 介

小有名气但利欲熏心的律师潘肖(徐峥 饰),凭借扎实的法律知识和巧舌如簧的庭辩技巧,成功帮盗捕国家珍禽阿拉泰隼并残忍杀害一名警察的西北盗猎团伙老大(多布杰 饰)洗脱罪名。老大承诺十天后付清余款,潘肖则要求对方用一辆红色轿车抵押。在此之后,他驾驶着新车踏上从西北荒漠返回大都会的路程。谁知路上险情不断,先是和一对开卡车拉茅草的哥俩(王双宝 & 巴多 饰)发生摩擦,导致人伤车损,接着又不慎撞飞一个似乎拦车求助的男子(黄渤 饰)。自知摊上人命的潘肖辗转来到一家专事不法勾当的黑店,并在此结识了受困于此的妓女(余男 饰)。与此同时,盗猎老大尾随其后,似乎另有凶险计划。

此时潘肖还没真正意识到,他前方是怎样一条充满凶险的旅途……

◎获奖情况 (共20项)

第64届柏林国际电影节 (2014)

金熊奖 最佳影片(提名)

└──宁浩 (id:1274265)

第51届台北金马影展 (2014)

金马奖 最佳摄影(提名)

└──杜杰 (id:1309338)

金马奖 最佳美术设计(提名)

└──郝艺 (id:1316581)

金马奖 最佳造型设计(提名)

└──郝艺 (id:1316581)

金马奖 最佳原创配乐(提名)

金马奖 最佳剪辑(提名)

└──杜媛 (id:1282754)

第34届香港电影金像奖 (2015)

最佳两岸华语电影(提名)

第8届亚洲电影大奖 (2014)

最佳电影(提名)

最佳男配角

└──黄渤 (id:1274242)

最佳剪接(提名)

└──杜媛 (id:1282754)

最佳美术指导(提名)

└──郝艺 (id:1316581)

第14届华语电影传媒大奖 (2014)

百家传媒年度致敬电影

最佳男配角(提名)

└──多布杰 (id:1308818)

第21届北京大学生电影节 (2014)

最佳导演奖(提名)

└──宁浩 (id:1274265)

最佳观赏效果奖(提名)

第1届豆瓣电影年度榜单 (2014)

1月最受关注电影(提名)

第4届豆瓣电影鑫像奖 (2014)

鑫豆单元 最佳影片(华语)(提名)

鑫豆单元 最佳导演(华语)(提名)

└──宁浩 (id:1274265)

鑫豆单元 最佳男演员(华语)(提名)

鑫豆单元 最佳女演员(华语)(提名)

└──余男 (id:1050430)

  1. ##### MediaInfo ######

  2. General

  3. Unique ID : 97698980575167796019119694524512157561 (0x498023A41755A64AC81F1B00F4073F79)

  4. Complete name : No.Man'[email protected]

  5. Format : Matroska

  6. Format version : Version 4

  7. File size : 8.41 GiB

  8. Duration : 1 h 57 min

  9. Overall bit rate : 10.3 Mb/s

  10. Encoded date : UTC 2021-10-07 09:17:39

  11. Writing application : mkvmerge v61.0.0 ('So') 64-bit

  12. Writing library : libebml v1.4.2 + libmatroska v1.6.4

  13. Attachments : WenQuanWeiMiHei-1.ttf


  14. Video

  15. ID : 1

  16. Format : HEVC

  17. Format/Info : High Efficiency Video Coding

  18. Format profile : Main [email protected]@Main

  19. Codec ID : V_MPEGH/ISO/HEVC

  20. Duration : 1 h 57 min

  21. Bit rate : 8 768 kb/s

  22. Width : 1 920 pixels

  23. Height : 832 pixels

  24. Display aspect ratio : 2.35:1

  25. Frame rate mode : Constant

  26. Frame rate : 24.000 FPS

  27. Color space : YUV

  28. Chroma subsampling : 4:2:0

  29. Bit depth : 10 bits

  30. Bits/(Pixel*Frame) : 0.229

  31. Stream size : 7.17 GiB (85%)

  32. Writing library : x265 3.5+2-g2b25c9ba0+45:[Windows][GCC 10.2.0][64 bit] Yuuki 10bit+8bit+12bit

  33. Encoding settings : rc=crf / crf=19.0000 / qcomp=0.65 / qpstep=4 / stats-write=0 / stats-read=0 / no-lossless / no-cu-lossless / aq-mode=3 / aq-strength=0.80 / cbqpoffs=0 / crqpoffs=0 / ipratio=1.40 / pbratio=1.30 / psy-rd=2.00 / psy-rdoq=0.00 / deblock=0:0 / ref=6 / limit-refs=1 / no-limit-modes / bframes=8 / b-adapt=2 / bframe-bias=0 / b-pyramid / b-intra / weightp / weightb / min-keyint=24 / max-keyint=240 / rc-lookahead=24 / gop-lookahead=0 / NTMzNTQ=uuDQuD2mJt9fsCf / scenecut=40 / hist-scenecut=0 / radl=0 / max-cu-size=64 / min-cu-size=8 / me=3 / subme=7 / merange=48 / rdoq-level=0 / rd=4 / rdpenalty=0 / dynamic-rd=0.00 / no-rd-refine / ----- / cutree / sao / no-rect / no-amp / no-open-gop / wpp / no-pmode / pme / no-psnr / no-ssim / nr-intra=0 / nr-inter=0 / no-constrained-intra / no-strong-intra-smoothing / max-tu-size=32 / tu-inter-depth=1 / tu-intra-depth=1 / limit-tu=0 / qg-size=32 / qpmax=69 / qpmin=0 / ----- / cpuid=533541111039 / frame-threads=4 / numa-pools=+ / log-level=2 / input-csp=1 / input-res=1920x832 / interlace=0 / level-idc=0 / high-tier=1 / uhd-bd=0 / no-allow-non-conformance / no-repeat-headers / aud / no-hrd / info / hash=0 / no-temporal-layers / lookahead-slices=0 / no-splice / no-intra-refresh / no-ssim-rd / signhide / no-tskip / max-merge=3 / temporal-mvp / no-frame-dup / no-hme / no-analyze-src-pics / no-sao-non-deblock / selective-sao=4 / early-skip / rskip / no-fast-intra / no-tskip-fast / no-splitrd-skip / zone-count=0 / no-strict-cbr / no-rc-grain / no-const-vbv / sar=0 / overscan=0 / videoformat=5 / range=0 / colorprim=2 / transfer=2 / colormatrix=2 / chromaloc=0 / display-window=0 / cll=0,0 / min-luma=0 / max-luma=1023 / log2-max-poc-lsb=8 / vui-timing-info / vui-hrd-info / slices=1 / no-opt-qp-pps / no-opt-ref-list-length-pps / no-multi-pass-opt-rps / scenecut-bias=0.05 / hist-threshold=0.03 / no-opt-cu-delta-qp / no-aq-motion / no-hdr10 / no-hdr10-opt / no-dhdr10-opt / no-idr-recovery-sei / analysis-reuse-level=0 / analysis-save-reuse-level=0 / analysis-load-reuse-level=0 / scale-factor=0 / refine-intra=0 / refine-inter=0 / refine-mv=1 / refine-ctu-distortion=0 / no-limit-sao / ctu-info=0 / no-lowpass-dct / refine-analysis-type=0 / copy-pic=1 / max-ausize-factor=1.0 / no-dynamic-refine / no-single-sei / no-hevc-aq / no-svt / no-field / qp-adaptation-range=1.00 / scenecut-aware-qp=0conformance-window-offsets / right=0 / bottom=0 / NTMzNTQ= / decoder-max-rate=0 / no-vbv-live-multi-pass

  34. Default : Yes

  35. Forced : No


  36. Audio

  37. ID : 2

  38. ID in the original source medium : 4354 (0x1102)

  39. Format : DTS

  40. Format/Info : Digital Theater Systems

  41. Codec ID : A_DTS

  42. Duration : 1 h 57 min

  43. Bit rate mode : Constant

  44. Bit rate : 1 509 kb/s

  45. Channel(s) : 6 channels

  46. Channel layout : C L R Ls Rs LFE

  47. Sampling rate : 48.0 kHz

  48. Frame rate : 93.750 FPS (512 SPF)

  49. Bit depth : 16 bits

  50. Compression mode : Lossy

  51. Stream size : 1.23 GiB (15%)

  52. Language : Chinese

  53. Default : Yes

  54. Forced : No

  55. Original source medium : Blu-ray


  56. Text #1

  57. ID : 3

  58. Format : ASS

  59. Codec ID : S_TEXT/ASS

  60. Codec ID/Info : Advanced Sub Station Alpha

  61. Duration : 1 h 50 min

  62. Bit rate : 55 b/s

  63. Count of elements : 1060

  64. Compression mode : Lossless

  65. Stream size : 45.1 KiB (0%)

  66. Title : chs

  67. Language : Chinese

  68. Default : Yes

  69. Forced : No


  70. Text #2

  71. ID : 4

  72. Format : ASS

  73. Codec ID : S_TEXT/ASS

  74. Codec ID/Info : Advanced Sub Station Alpha

  75. Duration : 1 h 50 min

  76. Bit rate : 55 b/s

  77. Count of elements : 1060

  78. Compression mode : Lossless

  79. Stream size : 45.1 KiB (0%)

  80. Title : cht

  81. Language : Chinese

  82. Default : No

  83. Forced : No


  84. Text #3

  85. ID : 5

  86. Format : UTF-8

  87. Codec ID : S_TEXT/UTF8

  88. Codec ID/Info : UTF-8 Plain Text

  89. Duration : 1 h 50 min

  90. Bit rate : 29 b/s

  91. Count of elements : 1045

  92. Stream size : 23.6 KiB (0%)

  93. Title : eng

  94. Language : English

  95. Default : No

  96. Forced : No


  97. Menu

  98. 00:00:00.000 : Chapter 01

  99. 00:11:54.000 : Chapter 02

  100. 00:22:16.000 : Chapter 03

  101. 00:36:07.000 : Chapter 04

  102. 00:45:43.000 : Chapter 05

  103. 00:57:40.000 : Chapter 06

  104. 01:09:45.000 : Chapter 07

  105. 01:17:36.000 : Chapter 08

  106. 01:28:53.000 : Chapter 09

  107. 01:41:27.000 : Chapter 10




复制代码



文件下载



除非特别注明,本文『无人区[国语配音/中文字幕].No.Man's.Land.2013.1080p.BluRay.x265.10bit.DTS 8.41GB』来源于互联网机器人自动抓取,非本站原创。 浮游电影网不对本文拥有版权,如有侵犯,请联系邮箱:fuyouu#yandex.com[#换成@]投诉。我们会在15个工作日内删除。 但烦请转载时请标明出处:“本文转载于『浮游电影网』,原文地址:https://www.fuyouu.com/14817.html

评论吧骚年!

发表你的见解   

昵称*

E-mail*(建议输入,以便收到博主回复的提示邮件)

验证码*

您可以使用eMule或eMule Mod(Windows)、aMule(Win、Linux、Mac)等软件下载eD2k链接。。
eMule收藏集(.emulecollection)文件是您选中的所有链接的列表文件。eMule可以直接下载它们。
按住SHIFT键选择可以选中多个选择框。
可用文件名和大小选择器来选择文件。
文件名选择器帮您根据文件名称或后缀来选择文件。不分大小写。
符号使用:
和:空格( )、+
不包含:-
或:|
转义:一对英文引号("");
匹配开头:^
匹配结尾:$
例如:
选中所有名称中包含有“eMule”或“0.49c”字眼,但不包含有“exe”字眼的:emule|0.49c -exe
选中所有名称的开头是“eMule”,结尾是“0.49c”的:^emule 0.49c$
选中所有名称中带有“eMule 0.49c”的(必须是“eMule 0.49c”,中间没有别的字符,不能是“eMule fake 0.49c”),需要转义:"emule 0.49c"
大小选择器帮您根据文件大小选择文件。