当前位置: 首页 >> 港台电影 >> 十年台湾[国语配音/中文字幕].Ten.Years.Taiwan.2018.1080p.x265.bit.DTS 5.19GB >> 正文

十年台湾[国语配音/中文字幕].Ten.Years.Taiwan.2018.1080p.x265.bit.DTS 5.19GB

2021年10月09日 09:59:45     电影发布:来源于网络     电影分类:港台电影     评论(0)    

十年台湾[国语配音/中文字幕].Ten.Years.Taiwan.2018.1080p.x265.bit.DTS 5.19GB 剧情片 港台电影  第1张

◎译 名 十年台湾 / Ten Years Taiwan

◎年 代 2018

◎产 地 中国台湾

◎类 别 剧情

◎语 言 汉语普通话 / 英语 / 闽南语 / 台湾原住民语言

◎上映日期 2018-07-07(中国台湾)

◎IMDb链接 https://www.imdb.com/title/tt7521858/

◎豆瓣评分 4.9/10 (391人评价)

◎豆瓣链接 https://movie.douban.com/subject/30265411/

◎片 长 108分钟

◎导 演 廖克发 Kek Huat Lau (id:1362182)

谢沛如 Pei-Ju Hsieh (id:1404071)

吕柏勋 Pai Hsun Lu (id:1377225)

邹隆娜 Rina Tsou (id:1378800)

勒嘎·舒米 Lekal Sumi (id:1355360)

◎演 员 许乃涵 Helena Hsu (id:1347827)

芳婷 Alina Fang-Ting (id:1362589)

陈柏佑 Po-You Chen (id:1449696)

郭宪聪 Tomi Kuo (id:1444240)

◎标 签 台湾 / 短片集 / 2018 / 台湾电影 / 短片 / 台灣 / 剧情 / 集錦片

◎简 介

《十年台湾》集结中生代与新生代的电影创作者,以他们独特的眼光,投射于城市的未来。本片由五部短片组成:《恶灵罐头》、《942》、《路半》、《虾饺》、《睏眠》。

◎获奖情况 (共1项)

第20届台北电影节 (2018)

台北电影奖 最佳剧情长片(提名)

  1. ##### MediaInfo ######

  2. General

  3. Unique ID : 268128455010901610108452928340541752789 (0xC9B7A97BC43E843D764D6D049B22C5D5)

  4. Complete name : Ten Years Taiwan 2018 1080p x265 bit [email protected]

  5. Format : Matroska

  6. Format version : Version 4

  7. File size : 5.19 GiB

  8. Duration : 1 h 48 min

  9. Overall bit rate : 6 840 kb/s

  10. Movie name : Ten Years Taiwan - Blu-ray?

  11. Encoded date : UTC 2021-10-07 12:47:21

  12. Writing application : mkvmerge v60.0.0 ('Are We Copies?') 64-bit

  13. Writing library : libebml v1.4.2 + libmatroska v1.6.4


  14. Video

  15. ID : 1

  16. Format : HEVC

  17. Format/Info : High Efficiency Video Coding

  18. Format profile : Main [email protected]@Main

  19. Codec ID : V_MPEGH/ISO/HEVC

  20. Duration : 1 h 48 min

  21. Bit rate : 5 311 kb/s

  22. Width : 1 920 pixels

  23. Height : 1 036 pixels

  24. Display aspect ratio : 1.85:1

  25. Frame rate mode : Constant

  26. Frame rate : 24.000 FPS

  27. Color space : YUV

  28. Chroma subsampling : 4:2:0

  29. Bit depth : 10 bits

  30. Bits/(Pixel*Frame) : 0.111

  31. Stream size : 4.03 GiB (78%)

  32. Writing library : x265 3.5+2-g2b25c9ba0+45:[Windows][GCC 10.2.0][64 bit] Yuuki 10bit+8bit+12bit

  33. Encoding settings : rc=crf / crf=17.0000 / qcomp=0.70 / qpstep=4 / stats-write=0 / stats-read=0 / no-lossless / no-cu-lossless / aq-mode=3 / aq-strength=0.90 / cbqpoffs=0 / crqpoffs=0 / ipratio=1.40 / pbratio=1.30 / psy-rd=2.00 / psy-rdoq=0.00 / deblock=0:0 / ref=6 / limit-refs=1 / no-limit-modes / bframes=8 / b-adapt=2 / bframe-bias=0 / b-pyramid / b-intra / weightp / weightb / min-keyint=24 / max-keyint=240 / rc-lookahead=24 / gop-lookahead=0 / NTMzNTQ=uuDQuD2mJt9fsCf / scenecut=40 / hist-scenecut=0 / radl=0 / max-cu-size=64 / min-cu-size=8 / me=3 / subme=7 / merange=48 / rdoq-level=0 / rd=4 / rdpenalty=0 / dynamic-rd=0.00 / no-rd-refine / ----- / cutree / sao / no-rect / no-amp / no-open-gop / wpp / no-pmode / no-pme / no-psnr / no-ssim / nr-intra=0 / nr-inter=0 / no-constrained-intra / no-strong-intra-smoothing / max-tu-size=32 / tu-inter-depth=1 / tu-intra-depth=1 / limit-tu=0 / qg-size=32 / qpmax=69 / qpmin=0 / ----- / cpuid=533541111039 / frame-threads=4 / numa-pools=+ / log-level=2 / input-csp=1 / input-res=1920x1036 / interlace=0 / level-idc=0 / high-tier=1 / uhd-bd=0 / no-allow-non-conformance / no-repeat-headers / aud / no-hrd / info / hash=0 / no-temporal-layers / lookahead-slices=6 / no-splice / no-intra-refresh / no-ssim-rd / signhide / no-tskip / max-merge=3 / temporal-mvp / no-frame-dup / no-hme / no-analyze-src-pics / no-sao-non-deblock / selective-sao=4 / early-skip / rskip / no-fast-intra / no-tskip-fast / no-splitrd-skip / zone-count=0 / no-strict-cbr / no-rc-grain / no-const-vbv / sar=0 / overscan=0 / videoformat=5 / range=0 / colorprim=2 / transfer=2 / colormatrix=2 / chromaloc=0 / display-window=0 / cll=0,0 / min-luma=0 / max-luma=1023 / log2-max-poc-lsb=8 / vui-timing-info / vui-hrd-info / slices=1 / no-opt-qp-pps / no-opt-ref-list-length-pps / no-multi-pass-opt-rps / scenecut-bias=0.05 / hist-threshold=0.03 / no-opt-cu-delta-qp / no-aq-motion / no-hdr10 / no-hdr10-opt / no-dhdr10-opt / no-idr-recovery-sei / analysis-reuse-level=0 / analysis-save-reuse-level=0 / analysis-load-reuse-level=0 / scale-factor=0 / refine-intra=0 / refine-inter=0 / refine-mv=1 / refine-ctu-distortion=0 / no-limit-sao / ctu-info=0 / no-lowpass-dct / refine-analysis-type=0 / copy-pic=1 / max-ausize-factor=1.0 / no-dynamic-refine / no-single-sei / no-hevc-aq / no-svt / no-field / qp-adaptation-range=1.00 / scenecut-aware-qp=0conformance-window-offsets / right=0 / bottom=0 / NTMzNTQ= / decoder-max-rate=0 / no-vbv-live-multi-pass

  34. Language : English

  35. Default : Yes

  36. Forced : No


  37. Audio

  38. ID : 2

  39. Format : DTS

  40. Format/Info : Digital Theater Systems

  41. Codec ID : A_DTS

  42. Duration : 1 h 48 min

  43. Bit rate mode : Constant

  44. Bit rate : 1 510 kb/s

  45. Channel(s) : 6 channels

  46. Channel layout : C L R Ls Rs LFE

  47. Sampling rate : 48.0 kHz

  48. Frame rate : 93.750 FPS (512 SPF)

  49. Bit depth : 24 bits

  50. Compression mode : Lossy

  51. Stream size : 1.15 GiB (22%)

  52. Language : Chinese

  53. Default : Yes

  54. Forced : No


  55. Text #1

  56. ID : 3

  57. Format : PGS

  58. Muxing mode : zlib

  59. Codec ID : S_HDMV/PGS

  60. Codec ID/Info : Picture based subtitle format used on BDs/HD-DVDs

  61. Duration : 1 h 41 min

  62. Bit rate : 18.2 kb/s

  63. Count of elements : 1473

  64. Stream size : 13.3 MiB (0%)

  65. Title : cht

  66. Language : Chinese

  67. Default : Yes

  68. Forced : No


  69. Text #2

  70. ID : 4

  71. Format : PGS

  72. Muxing mode : zlib

  73. Codec ID : S_HDMV/PGS

  74. Codec ID/Info : Picture based subtitle format used on BDs/HD-DVDs

  75. Duration : 1 h 41 min

  76. Bit rate : 19.7 kb/s

  77. Count of elements : 1485

  78. Stream size : 14.3 MiB (0%)

  79. Title : eng

  80. Language : English

  81. Default : Yes

  82. Forced : No




复制代码



文件下载


除非特别注明,本文『十年台湾[国语配音/中文字幕].Ten.Years.Taiwan.2018.1080p.x265.bit.DTS 5.19GB』来源于互联网机器人自动抓取,非本站原创。 浮游电影网不对本文拥有版权,如有侵犯,请联系邮箱:fuyouu#yandex.com[#换成@]投诉。我们会在15个工作日内删除。 但烦请转载时请标明出处:“本文转载于『浮游电影网』,原文地址:https://www.fuyouu.com/14816.html

评论吧骚年!

发表你的见解   

昵称*

E-mail*(建议输入,以便收到博主回复的提示邮件)

验证码*

您可以使用eMule或eMule Mod(Windows)、aMule(Win、Linux、Mac)等软件下载eD2k链接。。
eMule收藏集(.emulecollection)文件是您选中的所有链接的列表文件。eMule可以直接下载它们。
按住SHIFT键选择可以选中多个选择框。
可用文件名和大小选择器来选择文件。
文件名选择器帮您根据文件名称或后缀来选择文件。不分大小写。
符号使用:
和:空格( )、+
不包含:-
或:|
转义:一对英文引号("");
匹配开头:^
匹配结尾:$
例如:
选中所有名称中包含有“eMule”或“0.49c”字眼,但不包含有“exe”字眼的:emule|0.49c -exe
选中所有名称的开头是“eMule”,结尾是“0.49c”的:^emule 0.49c$
选中所有名称中带有“eMule 0.49c”的(必须是“eMule 0.49c”,中间没有别的字符,不能是“eMule fake 0.49c”),需要转义:"emule 0.49c"
大小选择器帮您根据文件大小选择文件。